Ошибка

Элвин и бурундуки: Грандиозное бурундуключение / Alvin and the Chipmunks: The Road Chip (Уолт Бекер) [2015, мультфильм, фэнтези, комедия, приключения, семейный, музыка, BDRip 720p]

Ответить на тему
 
Автор Сообщение

BZzz

Пол: Пол:Муж

Стаж: 5 лет 1 месяц

Сообщений: 3647

Россия
Рейтинг

post 04-Мар-2016 10:02 1[+]

[Цитировать] 

Элвин и бурундуки: Грандиозное бурундуключение / Alvin and the Chipmunks: The Road Chip
«Fast & furry-ous»




Год выпуска: 2015
Страна: США
Жанр: мультфильм, фэнтези, комедия, приключения, семейный, музыка
Продолжительность: 01:32:00
Перевод: Профессиональный (дублированный)[цифровая лицензия iTunes]
Cубтитры: английские

Режиссер: Уолт Бекер

В ролях: Джейсон Ли☆Jason Lee (Dave), Джастин Лонг☆Justin Long (Alvin, озвучка), Мэттью Грей Гублер☆Matthew Gray Gubler (Simon, озвучка), Джесси МакКартни☆Jesse McCartney (Theodore, озвучка), Кимберли Уильямс-Пэйсли☆Kimberly Williams-Paisley (Samantha), Джош Грин☆Josh Green (Miles), Тони Хейл☆Tony Hale (Agent Suggs), Белла Торн☆Bella Thorne (Ashley Grey), Эдди Стиплз☆Eddie Steeples (Barry), Кристина Эпплгейт☆Christina Applegate (Brittany, озвучка), Кейли Куоко-Суитинг☆Kaley Cuoco (Eleanor, озвучка), Анна Фэрис☆Anna Faris (Jeanette, озвучка)


Описание: Бурундуки пойдут на всё, чтобы сохранить свою семью, даже на грандиозное бурундуключение по всей Америке!Когда Бурундуки видят, что Дэйв берет с собой коробочку с кольцом в поездку в Майами, они отчаянно пытаются помешать ему сделать предложение его девушке — из опасения, что мачеха и сводный брат внесут перемены в их семейную идиллию. Но после того, как их помещают в черный список за хулиганское поведение в самолете, Элвин, Саймон, Теодор и их будущий брат Майлз отправляются в самое важное путешествие в их жизни через всю страну, чтобы успеть помешать помолвке.

Сборы в США: $84 848 877
Сборы в мире: + $138 754 540 = $223 603 417
Сборы в России: $3 115 040
Рейтинг MPAA: Рекомендуется присутствие родителей



Качество: BDRip 720p
Формат: MKV
Видео кодек: AVC
Аудио кодек: AC3
Видео: 1280x696 (1.85:1), 23.976 fps, AVC, 5 296 Kbps
Аудио #1: Rus AC3, 384 Kbps, 48.0 KHz, 6 ch
Аудио #2: Eng DTS, 1 510 Kbps, 48.0 KHz, 6 ch

» Это первый фильм серии, в котором спецэффекты в сценах с бурундуками сделаны студией «Weta Digital», а не «Rhythm and Hues». Студия «Rhythm and Hues» в 2013 году обанкротилась.

» Это четвёртая серия франшизы «Элвин и бурундуки».

» Съёмки фильма проходили в штате Джорджия.

» Это первый фильм серии, в котором отсутствует персонаж Дэвида Кросса в исполнении Яна Хоука.

» Некоторые эпизоды фильма были сняты в Майами-Бич.

» Роль Саманты авторы фильма одно время подумывали предложить Одетт Эннэбл и Брайс Даллас Ховард.

» Джейсон Ли и Эдди Стиплз встретились на съёмочной площадке этого фильма впервые после съёмок в сериале «Меня зовут Эрл», который шёл на канале «NBC» в 2005-2009 годах.

» Это второй фильм серии после «Элвина и бурундуков 3» (2011), музыку к которому написал Марк Мазерсбо, и первый фильм, предназначенный к показу в кинотеатрах, после фильма «Элвин и бурундуки 3», вышедшего четыре года назад.

» 23 марта 2015 года было объявлено, что к съёмочной группе фильма присоединилась Белла Торн.

» Одно время ходили слухи, что в четвёртом фильме Элвин будет говорить голосом не Джастина Лонга, а Мэттью Лилларда. Впоследствии стало известно, что Лиллард занят своим персонажем «Шэгги» Роджерса во франшизе «Скуби-ду», так что озвучил Элвина всё тот же Лонг.
General
Unique ID : 237306450854568091297367355832311059186 (0xB2878F5A2CBA976CBF8B9BE5E0F592F2)
Complete name : Alvin.and.the.Chipmunks.4.2015.D.BDRip.720p.mkv
Format : Matroska
Format version : Version 4 / Version 2
File size : 4.62 GiB
Duration : 1h 32mn
Overall bit rate : 7 188 Kbps
Encoded date : UTC 2016-03-03 19:04:55
Writing application : mkvmerge v8.3.0 ('Over the Horizon') 64bit
Writing library : libebml v1.3.1 + libmatroska v1.4.2

Video
ID : 1
Format : AVC
Format/Info : Advanced Video Codec
Format profile : High@L4.1
Format settings, CABAC : Yes
Format settings, ReFrames : 5 frames
Codec ID : V_MPEG4/ISO/AVC
Duration : 1h 32mn
Bit rate : 5 296 Kbps
Width : 1 280 pixels
Height : 696 pixels
Display aspect ratio : 1.85:1
Frame rate mode : Constant
Frame rate : 23.976 fps
Color space : YUV
Chroma subsampling : 4:2:0
Bit depth : 8 bits
Scan type : Progressive
Bits/(Pixel*Frame) : 0.248
Stream size : 3.31 GiB (72%)
Writing library : x264 core 148 r2665 a01e339
Encoding settings : cabac=1 / ref=5 / deblock=1:0:0 / analyse=0x3:0x113 / me=umh / subme=8 / psy=1 / psy_rd=1.00:0.00 / mixed_ref=1 / me_range=16 / chroma_me=1 / trellis=1 / 8x8dct=1 / cqm=0 / deadzone=21,11 / fast_pskip=0 / chroma_qp_offset=-2 / threads=22 / lookahead_threads=3 / sliced_threads=0 / nr=0 / decimate=1 / interlaced=0 / bluray_compat=0 / constrained_intra=0 / bframes=3 / b_pyramid=2 / b_adapt=2 / b_bias=0 / direct=3 / weightb=1 / open_gop=0 / weightp=2 / keyint=250 / keyint_min=23 / scenecut=40 / intra_refresh=0 / rc_lookahead=50 / rc=2pass / mbtree=1 / bitrate=5296 / ratetol=1.0 / qcomp=0.60 / qpmin=0 / qpmax=69 / qpstep=4 / cplxblur=20.0 / qblur=0.5 / ip_ratio=1.40 / aq=1:1.00
Language : English
Default : Yes
Forced : No

Audio #1
ID : 2
Format : AC-3
Format/Info : Audio Coding 3
Mode extension : CM (complete main)
Format settings, Endianness : Big
Codec ID : A_AC3
Duration : 1h 32mn
Bit rate mode : Constant
Bit rate : 384 Kbps
Channel(s) : 6 channels
Channel positions : Front: L C R, Side: L R, LFE
Sampling rate : 48.0 KHz
Bit depth : 16 bits
Compression mode : Lossy
Delay relative to video : 2s 0ms
Stream size : 253 MiB (5%)
Default : No
Forced : No

Audio #2
ID : 3
Format : DTS
Format/Info : Digital Theater Systems
Format profile : ES
Codec ID : A_DTS
Duration : 1h 32mn
Bit rate mode : Constant
Bit rate : 1 510 Kbps
Channel(s) : 6 channels
Channel positions : Front: L C R, Side: L R, LFE
Sampling rate : 48.0 KHz
Bit depth : 24 bits
Compression mode : Lossy
Stream size : 994 MiB (21%)
Language : English
Default : No
Forced : No

Text #1
ID : 4
Format : UTF-8
Codec ID : S_TEXT/UTF8
Codec ID/Info : UTF-8 Plain Text
Title : English forced
Language : English
Default : No
Forced : No

Text #2
ID : 5
Format : UTF-8
Codec ID : S_TEXT/UTF8
Codec ID/Info : UTF-8 Plain Text
Title : English regular
Language : English
Default : No
Forced : No

Text #3
ID : 6
Format : UTF-8
Codec ID : S_TEXT/UTF8
Codec ID/Info : UTF-8 Plain Text
Title : English sdh
Language : English
Default : No
Forced : No

Menu
00:00:00.000 : en:00:00:00.000
00:05:35.210 : en:00:05:35.210
00:08:09.322 : en:00:08:09.322
00:12:31.042 : en:00:12:31.042
00:16:40.333 : en:00:16:40.333
00:20:11.085 : en:00:20:11.085
00:22:45.447 : en:00:22:45.447
00:24:56.870 : en:00:24:56.870
00:27:57.217 : en:00:27:57.217
00:30:30.829 : en:00:30:30.829
00:35:27.751 : en:00:35:27.751
00:39:55.059 : en:00:39:55.059
00:42:55.531 : en:00:42:55.531
00:45:58.506 : en:00:45:58.506
00:49:43.480 : en:00:49:43.480
00:55:16.563 : en:00:55:16.563
00:58:13.490 : en:00:58:13.490
01:01:46.244 : en:01:01:46.244
01:04:39.000 : en:01:04:39.000
01:09:26.662 : en:01:09:26.662
01:13:25.860 : en:01:13:25.860
01:16:30.878 : en:01:16:30.878
01:21:39.811 : en:01:21:39.811
01:25:03.932 : en:01:25:03.932
info [Профиль]  [ЛС] 

bitday

Стаж: 6 лет 7 месяцев

Сообщений: 292

Украина
Рейтинг

post 05-Мар-2016 02:39 (спустя 16 часов) [-]0[+]

[Цитировать] 

Отличная картинка и звук.
info [Профиль]  [ЛС] 

post 21-Июл-2016 10:13 (спустя 4 месяца 16 дней) [-]0[+]

Топик был перенесен из форума Новинки 2015-2016 (Web-DL, DVD, HD DVD, Blu-ray, HD Rips) в форум Мультфильмы (HD Video)

Formula
 
Показать сообщения:    
Ответить на тему

Текущее время: 07-Дек 18:31

Часовой пояс: GMT + 4



Вы не можете начинать темы
Вы не можете отвечать на сообщения
Вы не можете редактировать свои сообщения
Вы не можете удалять свои сообщения
Вы не можете голосовать в опросах
Вы не можете прикреплять файлы к сообщениям
Вы не можете скачивать файлы