Ошибка

Флаги наших отцов / Flags of Our Fathers (Клинт Иствуд) [2006 г., военный, драма, исторический, HD-DVD Remux 1080p]

Ответить на тему
 
Автор Сообщение

RedBull4293

Пол: Пол:Муж

Стаж: 3 года 10 месяцев

Сообщений: 42

Россия
Рейтинг

post 01-Мар-2016 11:28 1[+]

[Цитировать] 

pic="http://i74.fastpic.ru/big/2016/0301/0e/99b17985d24792ec8e756e83f40f830e.jpg"
Флаги наших отцов / Flags of Our Fathers
«A Single Shot Can End The War»

Год выпуска: 2006
Страна: США
Жанр: военный, драма, исторический
Продолжительность: 02:15:36
Перевод: Профессиональный (многоголосый, закадровый) [лицензия]
Субтитры: русские, английские
Режиссер: Клинт Иствуд
В ролях: Райан Филипп, Джесси Брэдфорд, Адам Бич, Джон Бенжамин Хикки, Джон Слэттери, Бэрри Пеппер, Джэми Белл, Пол Уокер, Роберт Патрик, Нил МакДонаф
Описание:
История жизни шести американских пехотинцев, водрузивших флаг на вершине горы Сурибачи во время битвы при Иводзиме. Операция по овладению островом Иводзима стала переломным моментом в ходе Тихоокеанской кампании США против Японии весной 1945 года…

Второй фильм Клинта Иствуда из этой серии, рассказывающий об аналогичных событиях, но глазами японцев - "Письма с Иводзимы"
Рейтинг Кинопоиск: 7.033
Рейтинг IMDB: 7.10/10
Качество: HD-DVD Remux 1080p
Формат: mkv
Видео кодек: VC1
Аудио кодек: AC3,DTS
Видео: 1920x1080, 16:9, 23.976 fps,~19 Mbit/s
Аудио 1: AC3 DD 5.1 , 48 kHz, 384 kb/s - Профессиональный (многоголосый, закадровый) - лицензия
Аудио 2: DTS, 48 kHz, 1.5 mb/s - English

Общее

Уникальный идентификатор : 202419514809359338530931736787333929558 (0x9848949AFD9483BCAA3FB6E4D47BDA56)
Полное имя : C:\OGO2\Downloads\Фильмы\Flags Of Our Fathers.mkv
Формат : Matroska
Версия формата : Version 1
Размер файла : 19,0 Гбайт
Продолжительность : 2 ч. 11 м.
Общий поток : 20,6 Мбит/сек
Дата кодирования : UTC 2008-03-18 17:00:11
Программа кодирования : mkvmerge v2.1.0 ('Another Place To Fall') built on Aug 19 2007 13:40:07
Библиотека кодирования : libebml v0.7.7 + libmatroska v0.8.1

Видео

Идентификатор : 1
Формат : VC-1
Идентификатор кодека : V_MS/VFW/FOURCC / WVC1
Идентификатор кодека/Подсказка : Microsoft
Продолжительность : 2 ч. 11 м.
Битрейт : 18,3 Мбит/сек
Ширина : 1920 пикселей
Высота : 1080 пикселей
Соотношение сторон : 16:9
Режим частоты кадров : Постоянный
Частота кадров : 24,000 кадра/сек
Битовая глубина : bit0
Метод сжатия : С потерями
Бит/(Пиксели*Кадры) : 0.367
Размер потока : 16,8 Гбайт (89%)
Заголовок : Flags Of Our Fathers
Язык : English
Default : Да
Forced : Нет

Аудио #1

Идентификатор : 2
Формат : AC-3
Формат/Информация : Audio Coding 3
Расширение режима : CM (complete main)
Параметр Endianness формата : Big
Идентификатор кодека : A_AC3
Продолжительность : 2 ч. 11 м.
Вид битрейта : Постоянный
Битрейт : 384 Кбит/сек
Каналы : 6 каналов
Расположение каналов : Front: L C R, Side: L R, LFE
Частота : 48,0 КГц
Частота кадров : 31,250 кадров/сек (1536 spf)
Метод сжатия : С потерями
Размер потока : 362 Мбайт (2%)
Заголовок : AC3 384 kbps (Licenzia)
Язык : Russian
Default : Да
Forced : Нет

Аудио #2

Идентификатор : 3
Формат : DTS
Формат/Информация : Digital Theater Systems
Режим : 16
Параметр Endianness формата : Big
Идентификатор кодека : A_DTS
Продолжительность : 2 ч. 11 м.
Вид битрейта : Постоянный
Битрейт : 1510 Кбит/сек
Каналы : 6 каналов
Расположение каналов : Front: L C R, Side: L R, LFE
Частота : 48,0 КГц
Частота кадров : 93,750 кадра/сек (512 spf)
Битовая глубина : 24 бит
Метод сжатия : С потерями
Размер потока : 1,39 Гбайт (7%)
Заголовок : DTS 1.5 mbps
Язык : English
Default : Нет
Forced : Нет

Текст #1

Идентификатор : 4
Формат : UTF-8
Идентификатор кодека : S_TEXT/UTF8
Идентификатор кодека/Информация : UTF-8 Plain Text
Язык : Russian
Default : Да
Forced : Нет
Текст #2


Идентификатор : 5
Формат : UTF-8
Идентификатор кодека : S_TEXT/UTF8
Идентификатор кодека/Информация : UTF-8 Plain Text
Язык : English
Default : Нет
Forced : Нет

info [Профиль]  [ЛС] 

post 01-Мар-2016 11:57 (спустя 28 минут) [-]0[+]

Топик был перенесен из форума Анонсы в форум Зарубежное кино | HD DVD и Blu-ray

BZzz
 

enRoux

Стаж: 4 года 10 месяцев

Сообщений: 99

Рейтинг

post 01-Мар-2016 14:27 (спустя 2 часа 58 минут) [-]1[+]

[Цитировать] 

Ну, скажем так, переломной она не стала, но решимость обеих сторон драться изо всех сил подтвердила.
info [Профиль]  [ЛС] 

Андрей163

Пол: Пол:Муж

Стаж: 6 лет 2 месяца

Сообщений: 69

СССР
Рейтинг

post 01-Мар-2016 16:35 (спустя 2 часа 7 минут) [-]0[+]

[Цитировать] 

Блин не видел ещё, хорошо заметил раздачу, гляну оба фильма, Спасибо!

_________________
info [Профиль]  [ЛС] 

angrybeaver

Пол: Пол:Муж

Стаж: 7 лет 1 месяц

Сообщений: 44

Украина
Рейтинг

post 01-Мар-2016 18:20 (спустя 1 час 45 минут) [-]0[+]

[Цитировать] 

Это в догонку к Письмам с Иводзимы?
info [Профиль]  [ЛС] 

negotiator007

Стаж: 6 лет 8 месяцев

Сообщений: 91

Рейтинг

post 01-Мар-2016 20:37 (спустя 2 часа 17 минут) [-]-7[+]

[Цитировать] 

прочитал в ленте "Фраги наших отцов", скорее зашёл, думал молодость вспомнить, Quake, Doom и т.д. а нет, оказалось поцреотичное кино сшп
info [Профиль]  [ЛС] 
Показать сообщения:    
Ответить на тему

Текущее время: 07-Дек 22:25

Часовой пояс: GMT + 4



Вы не можете начинать темы
Вы не можете отвечать на сообщения
Вы не можете редактировать свои сообщения
Вы не можете удалять свои сообщения
Вы не можете голосовать в опросах
Вы не можете прикреплять файлы к сообщениям
Вы не можете скачивать файлы