Ошибка

Империя мертвых /Shisha no Teikoku / The Empire of Corpses [Movie] [2015] [психологическое, приключения, фантастика] [BDRip] [1080p] [Субтитры (JAP)]

Ответить на тему
 
Автор Сообщение

anoningen

Стаж: 3 года 6 месяцев

Сообщений: 323

Самоа
Рейтинг

post 27-Фев-2016 00:24 3[+]

[Цитировать] 

Империя мертвых
The Empire of Corpses
Shisha no Teikoku | 屍者の帝国

Год выпуска:
2015 г.
Тип: Полнометражный фильм
Жанр: психологическое, приключения, фантастика
Режиссер: Макихара Рётаро
Автор оригинала: Ито Кэйкаку
Студия:
Продолжительность: 120 мин
Русские субтитры: ASS, внешним файлом
Переводчик/Перевод песен/Оформление: Rinon Ninqueon [Shirome]
Редактор: Esito [ANderground team]

Описание: Данная работа отправит нас в Европу XIX века. Юный студент Джон Уотсон был завербован службой разведки в качестве секретного агента. Технократия — мир, где наука совершила невероятный прорыв для любой промышленности. Создание гомункулов поставлено на поток, и существа с мертвым телом и искусственной душой используются во всех сферах жизни в роли солдат и рабочей силы. Главного героя забрасывает в Афганистан в качестве военного медика, а также с целью наконец открыть тайну происходящего.
Автор рипа: Behelit
Качество: BDRip
Формат видео: MPEG-4
Видео: AVC, 10 бит, 1920x1080; 23.976 кадра/сек; 6473 Кбит/сек, (16:9)
Аудио: FLAC, 48,0 КГц, переменный ~1389 Кбит/сек, 2 канала
Общее
Уникальный идентификатор : 245475721517752126964450465917639608426 (0xB8ACE77E2E2EA40886B60FE92BA4486A)
Полное имя : G:\Anime\Shisha no Teikoku\[Behelit]_The_Empire_of_Corpses_-_Shisha_no_Teikoku_[BD_1080p_FLAC][025726FA].mkv
Формат : Matroska
Версия формата : Version 4 / Version 2
Размер файла : 6,60 Гбайт
Продолжительность : 2 ч. 0 м.
Режим общего битрейта : Переменный
Общий поток : 7864 Кбит/сек
Дата кодирования : UTC 2016-02-14 00:18:27
Программа кодирования : mkvmerge v7.8.0 ('River Man') 64bit built on Mar 27 2015 16:31:37
Библиотека кодирования : libebml v1.3.1 + libmatroska v1.4.2

Видео
Идентификатор : 1
Формат : AVC
Формат/Информация : Advanced Video Codec
Профиль формата : High 10@L5
Параметр CABAC формата : Да
Параметр ReFrames формата : 5 кадров
Идентификатор кодека : V_MPEG4/ISO/AVC
Продолжительность : 2 ч. 0 м.
Битрейт : 6473 Кбит/сек
Ширина : 1920 пикселей
Высота : 1080 пикселей
Соотношение сторон : 16:9
Режим частоты кадров : Постоянный
Частота кадров : 23,976 кадра/сек
Цветовое пространство : YUV
Субдискретизация насыщенности : 4:2:0
Битовая глубина : 10 бит
Тип развёртки : Прогрессивная
Бит/(Пиксели*Кадры) : 0.130
Размер потока : 5,43 Гбайт (82%)
Библиотека кодирования : x264 core 128 r2216+688+32 a17ff54 tMod [10-bit@all X86]
Настройки программы : cabac=1 / ref=5 / deblock=1:0:0 / analyse=0x3:0x113 / me=umh / subme=7 / psy=1 / fade_compensate=0.40 / psy_rd=0.50:0.10 / mixed_ref=1 / me_range=16 / chroma_me=1 / trellis=1 / 8x8dct=1 / cqm=0 / deadzone=21,11 / fast_pskip=1 / chroma_qp_offset=-3 / threads=18 / lookahead_threads=3 / sliced_threads=0 / nr=0 / decimate=1 / interlaced=0 / bluray_compat=0 / constrained_intra=0 / fgo=0 / bframes=9 / b_pyramid=2 / b_adapt=2 / b_bias=0 / direct=3 / weightb=1 / open_gop=0 / weightp=2 / keyint=250 / keyint_min=23 / scenecut=40 / intra_refresh=0 / rc_lookahead=50 / rc=crf / mbtree=1 / crf=18.0000 / qcomp=0.60 / qpmin=0 / qpmax=81 / qpstep=4 / ip_ratio=1.40 / aq=4:0.90
Язык : English
Default : Да
Forced : Нет
Цветовой диапазон : Limited
Коэффициенты матрицы : BT.709

Аудио
Идентификатор : 2
Формат : FLAC
Формат/Информация : Free Lossless Audio Codec
Идентификатор кодека : A_FLAC
Продолжительность : 2 ч. 0 м.
Вид битрейта : Переменный
Битрейт : 1389 Кбит/сек
Каналы : 2 канала
Расположение каналов : Front: L R
Частота : 48,0 КГц
Частота кадров : 11,719 кадров/сек (4096 spf)
Битовая глубина : 24 бит
Размер потока : 1,17 Гбайт (18%)
Библиотека кодирования : libFLAC 1.3.0 (UTC 2013-05-26)
Default : Да
Forced : Нет
info [Профиль]  [ЛС] 

AsusDelux

Пол: Пол:Муж

Стаж: 7 лет 3 месяца

Сообщений: 2433

Россия
Рейтинг

post 27-Фев-2016 23:30 (спустя 23 часа) [-]0[+]

[Цитировать] 

А поменьше рипа нету?
info [Профиль]  [ЛС] 

andaks

Стаж: 6 лет 7 месяцев

Сообщений: 51

Рейтинг

post 27-Фев-2016 23:43 (спустя 13 минут) [-]0[+]

[Цитировать] 

а перевода нет, только сабы? чот не гуглится с переводом (
info [Профиль]  [ЛС] 

anoningen

Стаж: 3 года 6 месяцев

Сообщений: 323

Самоа
Рейтинг

post 28-Фев-2016 00:59 (спустя 1 час 15 минут) [-]0[+]

[Цитировать] 

AsusDelux
Рип есть, но выложить смогу только через пару дней.

добавлено спустя 1 час 7 минут 8 секунд:

andaks
Только сабы.
info [Профиль]  [ЛС] 

Doktor_Strahov

Стаж: 2 года 5 месяцев

Сообщений: 13

Рейтинг

post 28-Фев-2016 02:32 (спустя 1 час 32 минуты) [-]0[+]

[Цитировать] 

Какая-то невнятная каша в итоге получилась. Да и перевод оставляет желать лучшего.
info [Профиль]  [ЛС] 

88Jeff88

Пол: Пол:Муж

Стаж: 7 лет 2 месяца

Сообщений: 86

Россия
Рейтинг

post 28-Фев-2016 11:27 (спустя 8 часов) [-]3[+]

[Цитировать] 

Интересно, и рисовка на уровне, заценим!
Оффтоп
Хотел сказать спасибо тем людям, которые выкладывают интересные (и не очень))) аниме,прям от души! kolob_117
info [Профиль]  [ЛС] 
Показать сообщения:    
Ответить на тему

Текущее время: 04-Дек 03:57

Часовой пояс: GMT + 4



Вы не можете начинать темы
Вы не можете отвечать на сообщения
Вы не можете редактировать свои сообщения
Вы не можете удалять свои сообщения
Вы не можете голосовать в опросах
Вы не можете прикреплять файлы к сообщениям
Вы не можете скачивать файлы