Ошибка

007: Спектр / Spectre (Сэм Мендес) [2015, боевик, триллер, приключения, BDRemux 1080p]

Ответить на тему
 
Автор Сообщение

karlmenni

Пол: Пол:Муж

Стаж: 1 год 11 месяцев

Сообщений: 1236

Россия
Рейтинг

post 14-Фев-2016 12:54 3[+]

[Цитировать] 

007: Спектр / Spectre
«The Dead Are Alive»


Год выпуска: 2015
Страна: Великобритания, США
Студия: B24, Columbia Pictures, Danjaq
Жанр: боевик, триллер, приключения
Продолжительность: 02:28:06
Перевод: Дублированный [Лицензия]
Субтитры: Русский, Английский
Рейтинг MPAA:

Режиссёр: Сэм Мендес
В ролях: Дэниэл Крэйг, Кристоф Вальц, Леа Сейду, Рэйф Файнс, Моника Беллуччи, Бен Уишоу, Наоми Харрис, Дэйв Батиста, Эндрю Скотт, Рори Киннер
Зашифрованное послание из неизвестного источника выводит Бонда на след зловещей глобальной организации под кодовым названием СПЕКТР, в то время как М пытается спасти секретную разведывательную службу от ликвидации.
Качество: BDRemux 1080p
Формат: MKV
Видео кодек: AVC
Видео: AVC, 1920x1080 (16:9), 23.976 fps, 26.5 Mbps (0.533 bit/pixel)
Аудио 1: DTS, 48.0 KHz, 6 ch, 755 Kbps, CBR (Russian)
Аудио 2: AC-3, 48.0 KHz, 6 ch, 448 Kbps, CBR (Ukrainian)
Аудио 3: DTS MA / Core, 48.0 KHz, 8 / 6 ch, 1 597 Kbps / 1 510 Kbps, VBR (English)



          

Код:

Общее
Уникальный идентификатор                 : 230988999792545880222120758768726868713 (0xADC6DCF78F2148A1A2987FD7893282E9)
Полное имя                               : C:\MyFiles\FILM\Spectre_2015_BDRemux1080p.mkv
Формат                                   : Matroska
Версия формата                           : Version 4 / Version 2
Размер файла                             : 30,9 Гбайт
Продолжительность                        : 2 ч. 28 м.
Режим общего битрейта                    : Переменный
Общий поток                              : 29,9 Мбит/сек
Название фильма                          : Spectre_2015_BDRemux1080p
Дата кодирования                         : UTC 2016-02-14 08:07:29
Программа кодирования                    : mkvmerge v5.9.0 ('On The Loose') built on Dec 31 2012 17:36:59
Библиотека кодирования                   : libebml v1.3.0 + libmatroska v1.4.0

Видео
Идентификатор                            : 1
Формат                                   : AVC
Формат/Информация                        : Advanced Video Codec
Профиль формата                          : High@L4.1
Параметр CABAC формата                   : Да
Параметр ReFrames формата                : 4 кадра
Режим смешивания                         : Header stripping
Идентификатор кодека                     : V_MPEG4/ISO/AVC
Продолжительность                        : 2 ч. 28 м.
Вид битрейта                             : Переменный
Максимальный битрейт                     : 31,8 Мбит/сек
Ширина                                   : 1920 пикселей
Высота                                   : 1080 пикселей
Соотношение сторон                       : 16:9
Режим частоты кадров                     : Постоянный
Частота кадров                           : 23,976 кадра/сек
Цветовое пространство                    : YUV
Субдискретизация насыщенности            : 4:2:0
Битовая глубина                          : 8 бит
Тип развёртки                            : Прогрессивная
Default                                  : Да
Forced                                   : Нет

Аудио #1
Идентификатор                            : 2
Формат                                   : DTS
Формат/Информация                        : Digital Theater Systems
Режим                                    : 16
Параметр Endianness формата              : Big
Режим смешивания                         : Header stripping
Идентификатор кодека                     : A_DTS
Продолжительность                        : 2 ч. 28 м.
Вид битрейта                             : Постоянный
Битрейт                                  : 768 Кбит/сек
Каналы                                   : 6 каналов
Расположение каналов                     : Front: L C R, Side: L R, LFE
Частота                                  : 48,0 КГц
Битовая глубина                          : 24 бит
Метод сжатия                             : С потерями
Размер потока                            : 814 Мбайт (3%)
Язык                                     : Russian
Default                                  : Да
Forced                                   : Нет

Аудио #2
Идентификатор                            : 3
Формат                                   : AC-3
Формат/Информация                        : Audio Coding 3
Расширение режима                        : CM (complete main)
Параметр Endianness формата              : Big
Режим смешивания                         : Header stripping
Идентификатор кодека                     : A_AC3
Продолжительность                        : 2 ч. 28 м.
Вид битрейта                             : Постоянный
Битрейт                                  : 448 Кбит/сек
Каналы                                   : 6 каналов
Расположение каналов                     : Front: L C R, Side: L R, LFE
Частота                                  : 48,0 КГц
Битовая глубина                          : 16 бит
Метод сжатия                             : С потерями
Размер потока                            : 475 Мбайт (1%)
Язык                                     : Ukrainian
Default                                  : Нет
Forced                                   : Нет

Аудио #3
Идентификатор                            : 4
Формат                                   : DTS
Формат/Информация                        : Digital Theater Systems
Профиль формата                          : MA / Core
Режим                                    : 16
Параметр Endianness формата              : Big
Режим смешивания                         : Header stripping
Идентификатор кодека                     : A_DTS
Продолжительность                        : 2 ч. 28 м.
Вид битрейта                             : Переменный
Битрейт                                  : Неизвестно / 1509 Кбит/сек
Каналы                                   : 8 каналов / 6 каналов
Расположение каналов                     : Front: L C R, Side: L R, Back: L R, LFE / Front: L C R, Side: L R, LFE
Частота                                  : 48,0 КГц
Битовая глубина                          : 24 бит
Метод сжатия                             : Без потерь / Lossy
Язык                                     : English
Default                                  : Нет
Forced                                   : Нет

Текст #1
Идентификатор                            : 5
Формат                                   : UTF-8
Идентификатор кодека                     : S_TEXT/UTF8
Идентификатор кодека/Информация          : UTF-8 Plain Text
Язык                                     : Russian
Default                                  : Да
Forced                                   : Нет

Текст #2
Идентификатор                            : 6
Формат                                   : UTF-8
Идентификатор кодека                     : S_TEXT/UTF8
Идентификатор кодека/Информация          : UTF-8 Plain Text
Язык                                     : English
Default                                  : Нет
Forced                                   : Нет


info [Профиль]  [ЛС] 

Falkir

Пол: Пол:Муж

Стаж: 3 года 9 месяцев

Сообщений: 271

Предупреждений: 1

Рейтинг

post 14-Фев-2016 22:34 (спустя 9 часов) [-]0[+]

[Цитировать] 

А его в 2д крутили в кинотеатрах? BD3D не ждать?
info [Профиль]  [ЛС] 

Shikurim

Пол: Пол:Муж

Стаж: 3 года 9 месяцев

Сообщений: 14

Россия
Рейтинг

post 16-Фев-2016 17:22 (спустя 1 день 18 часов) [-]0[+]

[Цитировать] 

Спасибо, качаю для коллекции Улыбаюсь
info [Профиль]  [ЛС] 

post 21-Июл-2016 10:29 (спустя 5 месяцев 4 дня) [-]0[+]

Топик был перенесен из форума Новинки 2015-2016 (Web-DL, DVD, HD DVD, Blu-ray, HD Rips) в форум Зарубежное кино | HD DVD и Blu-ray

Formula
 
Показать сообщения:    
Ответить на тему

Текущее время: 08-Дек 18:26

Часовой пояс: GMT + 4



Вы не можете начинать темы
Вы не можете отвечать на сообщения
Вы не можете редактировать свои сообщения
Вы не можете удалять свои сообщения
Вы не можете голосовать в опросах
Вы не можете прикреплять файлы к сообщениям
Вы не можете скачивать файлы