Ошибка

Снупи и мелочь пузатая в кино / The Peanuts Movie (Стив Мартино) [2015 г., мультфильм, комедия, приключения, семейный, WEB-DLRip] (iTunes)

Ответить на тему
 
Автор Сообщение

CrazySmall

Пол: Пол:Муж

Стаж: 6 лет 9 месяцев

Сообщений: 281

СССР
Рейтинг

post 12-Фев-2016 20:46 8[+]

[Цитировать] 

Снупи и мелочь пузатая в кино / The Peanuts Movie

Год выпуска: 2015
Страна: США
Жанр: мультфильм, комедия, приключения, семейный
Продолжительность: 1:28:38
Перевод: Профессиональный (дублированный) [iTunes]
Язык субтитров: нет

Режиссер:
  • Стив Мартино


В ролях:
  • Тромбоун Шорти, Ребекка Блум, Анастасия Бредихина, Франческа Капальди, Кристин Ченоуэт, Александр Гарфин, Ной Джонстон, Билл Мелендес, Хэдли Белль Миллер, Micah Revelli


Описание: Чарли Браун, Снупи, Люси, Линус и другие полюбившиеся персонажи комиксов «Мелочь пузатая» впервые появятся на большом экране в полнометражном анимационном фильме, снятом с использованием последних достижений 3D-анимации. Снупи — самый симпатичный пес в мире — к тому же, классный пилот — отправляется в невероятные воздушные приключения в погоне за главным злодеем Красным Бароном. В это время у его приятеля Чарли Брауна начинаются поистине эпические приключения!


Качество: WEB-DLRip
Формат: AVI
Видео кодек: XviD
Аудио кодек: AC3
Видео: 720x384, 23.976 fps, ~1815 kbps
Аудио: AC-3, 6 ch, 384 kbps, 48 kHz
Формат : AVI
Формат/Информация : Audio Video Interleave
Размер файла : 1,37 Гбайт
Продолжительность : 1 ч. 28 м.
Общий поток : 2206 Кбит/сек
Название фильма : Snuppi_i_meloch_puzataya_v_kino
Программа кодирования : VirtualDubMod 1.5.10.2 (build 2540/release)
Формат оригинала/Имя : Movie

Видео
Идентификатор : 0
Формат : MPEG-4 Visual
Профиль формата : Advanced Simple@L5
Параметр BVOP формата : 2
Параметр QPel формата : Нет
Параметр GMC формата : Без точки перехода
Параметр матрицы формата : Default (MPEG)
Идентификатор кодека : XVID
Идентификатор кодека/Подсказка : XviD
Продолжительность : 1 ч. 28 м.
Битрейт : 1815 Кбит/сек
Ширина : 720 пикселей
Высота : 384 пикселя
Соотношение сторон : 1,85:1
Частота кадров : 23,976 (24000/1001) кадра/сек
Цветовое пространство : YUV
Субдискретизация насыщенности : 4:2:0
Битовая глубина : 8 бит
Тип развёртки : Прогрессивная
Метод сжатия : С потерями
Бит/(Пиксели*Кадры) : 0.274
Размер потока : 1,12 Гбайт (82%)
Библиотека кодирования : XviD 1.2.1 (UTC 2008-12-04)

Аудио
Идентификатор : 1
Формат : AC-3
Формат/Информация : Audio Coding 3
Расширение режима : CM (complete main)
Параметр Endianness формата : Big
Идентификатор кодека : 2000
Продолжительность : 1 ч. 28 м.
Вид битрейта : Постоянный
Битрейт : 384 Кбит/сек
Каналы : 6 каналов
Расположение каналов : Front: L C R, Side: L R, LFE
Частота : 48,0 КГц
Частота кадров : 31,250 кадров/сек (1536 spf)
Метод сжатия : С потерями
Размер потока : 242 Мбайт (17%)
Выравнивание : Разделение по промежуткам
Продолжительность промежутка : 42 мс. (1,01 видеокадр)
Время предзагрузки промежутка : 500 мс.
info [Профиль]  [ЛС] 

surmaless

Пол: Пол:Муж

Стаж: 6 лет 2 месяца

Сообщений: 16

Рейтинг

post 13-Фев-2016 01:53 (спустя 5 часов) [-]1[+]

[Цитировать] 

Большое спасибо!
info [Профиль]  [ЛС] 

post 21-Июл-2016 11:06 (спустя 5 месяцев 8 дней) [-]0[+]

Топик был перенесен из форума Новинки 2015-2016 (Rips) в форум Зарубежные полнометражные мультфильмы

Formula
 
Показать сообщения:    
Ответить на тему

Текущее время: 03-Дек 17:45

Часовой пояс: GMT + 4



Вы не можете начинать темы
Вы не можете отвечать на сообщения
Вы не можете редактировать свои сообщения
Вы не можете удалять свои сообщения
Вы не можете голосовать в опросах
Вы не можете прикреплять файлы к сообщениям
Вы не можете скачивать файлы