Ошибка

Братец медвежонок 2: Лоси в бегах / Brother Bear 2 (Бен Глюк/Ben Gluck) [2006, мультфильм, фэнтези, комедия, приключения, семейный, BDRip 1080p]

Ответить на тему
 
Автор Сообщение

smashenemies

Пол: Пол:Муж

Стаж: 1 год 10 месяцев

Сообщений: 3

Украина
Рейтинг

post 12-Фев-2016 10:32 5[+]

[Цитировать] 

Братец медвежонок 2: Лоси в бегах / Brother Bear 2



Год выпуска: 2006
Страна: США
Жанр: мультфильм, фэнтези, комедия, приключения, семейный
Продолжительность: 01:13:26
Перевод: Профессиональный (полное дублирование) [лицензия]
Язык субтитров: русский, английский
Режиссер:
  • Бен Глюк/Ben Gluck
В ролях:
  • Патрик Демпси/Patrick Dempsey, Мэнди Мур/Mandy Moore, Джереми Суарес/Jeremy Suarez, Рик Морэнис/Rick Moranis, Дэйв Томас/Dave Thomas и др.

Описание: Кенаи был наказан за его несострадательность к братьям нашим меньшим, и нашел истинное счастье и смысл всех своих стремлений со своим новым младшим братиком, Кодой. Однако, когда старая подруга Кенаи, девушка по имени Нита, готовится к свадьбе с другим мужчиной, духи посылают ей знак о том, что в детстве Кенаи и Нита связали себя крепкими узами, которые им придется разорвать или вспомнить о былых чувствах...

Релиз группа:
Качество: BDRip 1080p
Формат: MKV
Видео кодек: AVC
Аудио кодек: AC-3, DTS
Видео: 1920 х 1080, 16:9, 24 fps, 11 mbps
Аудио 1: Russian, AC3 5.1 @ 640 kbps - Dub, Blu-ray CEE, 6 ch, 48 KHz (Дубляж)
Аудио 2: Russian, AC3 2.0 @ 192 kbps - VO, Grankin, 2 ch, 48 KHz (Авторский)
Аудио 3: English, DTS 5.1 @ 1536 kbps, 6 ch, 48 KHz (Оригинал)
Субтитры 1: Russian, UTF-8
Субтитры 2: English, UTF-8
Общее
Уникальный идентификатор : 252491992644451234552544320467934807290 (0xBDF4305E0E93BAEF82AA5653981A84FA)
Полное имя : E:\Movies\Brother Bear\Brother.Bear.2.2006.1080p.Blu-ray Rip.HDCLUB.mkv
Формат : Matroska
Версия формата : Version 4 / Version 2
Размер файла : 6,85 Гбайт
Продолжительность : 1 ч. 13 м.
Общий поток : 13,3 Мбит/сек
Название фильма : Brother Bear 2 (2006) - Release for HDCLUB by Skazhutin
Дата кодирования : UTC 2013-03-19 11:20:07
Программа кодирования : mkvmerge v6.1.0 ('Old Devil') built on Mar 2 2013 14:32:37
Библиотека кодирования : libebml v1.3.0 + libmatroska v1.4.0
Обложка : Yes
Attachments : cover.jpg / xlog.txt

Видео
Идентификатор : 1
Формат : AVC
Формат/Информация : Advanced Video Codec
Профиль формата : High@L4.1
Параметр CABAC формата : Да
Параметр ReFrames формата : 4 кадра
Идентификатор кодека : V_MPEG4/ISO/AVC
Продолжительность : 1 ч. 13 м.
Битрейт : 11,0 Мбит/сек
Ширина : 1920 пикселей
Высота : 1080 пикселей
Соотношение сторон : 16:9
Режим частоты кадров : Постоянный
Частота кадров : 23,976 (24000/1001) кадра/сек
Цветовое пространство : YUV
Субдискретизация насыщенности : 4:2:0
Битовая глубина : 8 бит
Тип развёртки : Прогрессивная
Бит/(Пиксели*Кадры) : 0.221
Размер потока : 5,49 Гбайт (80%)
Заголовок : Release for HDCLUB
Библиотека кодирования : x264 core 130 r2273kMod b3065e6
Настройки программы : cabac=1 / ref=4 / deblock=1:-1:-1 / analyse=0x3:0x113 / me=umh / subme=11 / psy=1 / fade_compensate=0.00 / psy_rd=1.00:0.00 / mixed_ref=1 / me_range=48 / chroma_me=1 / trellis=2 / 8x8dct=1 / cqm=0 / deadzone=21,11 / fast_pskip=0 / chroma_qp_offset=-2 / threads=12 / lookahead_threads=2 / sliced_threads=0 / nr=0 / decimate=0 / interlaced=0 / bluray_compat=0 / constrained_intra=0 / bframes=8 / b_pyramid=2 / b_adapt=2 / b_bias=0 / direct=3 / weightb=1 / open_gop=0 / weightp=2 / keyint=250 / keyint_min=23 / scenecut=40 / intra_refresh=0 / rc_lookahead=40 / rc=2pass / mbtree=0 / bitrate=11000 / ratetol=1.0 / qcomp=0.70 / qpmin=0 / qpmax=69 / qpstep=4 / cplxblur=20.0 / qblur=0.5 / vbv_maxrate=50000 / vbv_bufsize=62500 / nal_hrd=none / ip_ratio=1.40 / pb_ratio=1.30 / aq=1:0.90
Язык : English
Default : Да
Forced : Нет
Цветовой диапазон : Limited
Коэффициенты матрицы : BT.709

Аудио #1
Идентификатор : 2
Формат : AC-3
Формат/Информация : Audio Coding 3
Расширение режима : CM (complete main)
Параметр Endianness формата : Big
Идентификатор кодека : A_AC3
Продолжительность : 1 ч. 13 м.
Вид битрейта : Постоянный
Битрейт : 640 Кбит/сек
Каналы : 6 каналов
Расположение каналов : Front: L C R, Side: L R, LFE
Частота : 48,0 КГц
Частота кадров : 31,250 кадров/сек (1536 spf)
Метод сжатия : С потерями
Размер потока : 336 Мбайт (5%)
Заголовок : AC3 5.1 @ 640 kbps - Dub, Blu-ray CEE
Язык : Russian
Default : Да
Forced : Нет

Аудио #2
Идентификатор : 3
Формат : AC-3
Формат/Информация : Audio Coding 3
Расширение режима : CM (complete main)
Параметр Endianness формата : Big
Идентификатор кодека : A_AC3
Продолжительность : 1 ч. 13 м.
Вид битрейта : Постоянный
Битрейт : 224 Кбит/сек
Каналы : 2 канала
Расположение каналов : Front: L R
Частота : 48,0 КГц
Частота кадров : 31,250 кадров/сек (1536 spf)
Метод сжатия : С потерями
Размер потока : 118 Мбайт (2%)
Заголовок : AC3 2.0 @ 192 kbps - VO, Grankin
Язык : Russian
Default : Нет
Forced : Нет

Аудио #3
Идентификатор : 4
Формат : DTS
Формат/Информация : Digital Theater Systems
Режим : 16
Параметр Endianness формата : Big
Идентификатор кодека : A_DTS
Продолжительность : 1 ч. 13 м.
Вид битрейта : Постоянный
Битрейт : 1509 Кбит/сек
Каналы : 6 каналов
Расположение каналов : Front: L C R, Side: L R, LFE
Частота : 48,0 КГц
Частота кадров : 93,750 кадра/сек (512 spf)
Битовая глубина : 24 бит
Метод сжатия : С потерями
Размер потока : 793 Мбайт (11%)
Заголовок : DTS 5.1 @ 1536 kbps
Язык : English
Default : Нет
Forced : Нет

Текст #1
Идентификатор : 5
Формат : UTF-8
Идентификатор кодека : S_TEXT/UTF8
Идентификатор кодека/Информация : UTF-8 Plain Text
Язык : Russian
Default : Нет
Forced : Нет

Текст #2
Идентификатор : 6
Формат : UTF-8
Идентификатор кодека : S_TEXT/UTF8
Идентификатор кодека/Информация : UTF-8 Plain Text
Язык : English
Default : Нет
Forced : Нет

Текст #3
Идентификатор : 7
Формат : UTF-8
Идентификатор кодека : S_TEXT/UTF8
Идентификатор кодека/Информация : UTF-8 Plain Text
Язык : English
Default : Нет
Forced : Нет
info [Профиль]  [ЛС] 

post 12-Фев-2016 23:32 (спустя 13 часов) [-]0[+]

Топик был перенесен из форума Анонсы в форум Мультфильмы (HD Video)

LyaKich
 
Показать сообщения:    
Ответить на тему

Текущее время: 06-Дек 00:41

Часовой пояс: GMT + 4



Вы не можете начинать темы
Вы не можете отвечать на сообщения
Вы не можете редактировать свои сообщения
Вы не можете удалять свои сообщения
Вы не можете голосовать в опросах
Вы не можете прикреплять файлы к сообщениям
Вы не можете скачивать файлы