Ошибка

Кафедральный собор / Katedra / The Cathedral (Томeк Багински / Tomek Baginski) [2002 г.,мультфильм, короткометражка, WEB-DL 720p]

Ответить на тему
 
Автор Сообщение

Wootz

Пол: Пол:Муж

Стаж: 7 лет 2 месяца

Сообщений: 133

Сирия
Рейтинг

post 11-Фев-2016 19:54 2[+]

[Цитировать] 

Katedra / The Cathedral
Кафедральный собор


Год выпуска: 2002
Страна: Польша
Студия: Platige Image
Жанр: мультфильм, короткометражный
Продолжительность: 00:06:20
Перевод: Не требуется

Режиссер: Томек Багински / Tomek Baginski / Tomasz Baginski

Описание:
Короткая поэтическaя 3D-анимация по одноимённому рассказу польского писателя-фантаста Яцека Дукая/Jacek Dukaj. Это история об одном паломнике страннике, который пришёл в Кафедральный собор, находящийся на краю света. Он хочет найти ответы на свои вопросы, а находит тишину и спокойствие. Автор не раскрывает нам конца истории. В сценарии лишь написано: "... собор - это не только здание, и паломник - не только просто мужчина." А концепция фильма универсальна и подходит к множеству ситуаций.

Качество: WEB-DL 720p
Формат: MP4
Видео: MPEG4 Video (H264) 1280x720 25fps 20839 Кбит/сек
Аудио: AAC 48000Hz stereo 128 Кбит/сек





Код:

Общее
Полное имя                               : ...\the-cathedral-720p.mp4
Формат                                   : MPEG-4
Профиль формата                          : Base Media / Version 2
Идентификатор кодека                     : mp42 (mp42/isom/avc1)
Размер файла                             : 950 Мбайт
Продолжительность                        : 6 м. 20 с.
Режим общего битрейта                    : Переменный
Общий поток                              : 21,0 Мбит/сек
Программа кодирования                    : TMPGEnc Video Mastering Works 5 Version. 5.0.6.38

Видео
Идентификатор                            : 2
Формат                                   : AVC
Формат/Информация                        : Advanced Video Codec
Профиль формата                          : High@L3.2
Параметр CABAC формата                   : Да
Параметр ReFrames формата                : 3 кадра
Идентификатор кодека                     : avc1
Идентификатор кодека/Информация          : Advanced Video Coding
Продолжительность                        : 6 м. 20 с.
Вид битрейта                             : Постоянный
Битрейт                                  : 20,8 Мбит/сек
Номинальный битрейт                      : 23,0 Мбит/сек / 23,0 Мбит/сек
Ширина                                   : 1280 пикселей
Высота                                   : 720 пикселей
Соотношение сторон                       : 16:9
Режим частоты кадров                     : Постоянный
Частота кадров                           : 25,000 кадров/сек
Стандарт вещания                         : NTSC
Цветовое пространство                    : YUV
Субдискретизация насыщенности            : 4:2:0
Битовая глубина                          : 8 бит
Тип развёртки                            : Прогрессивная
Бит/(Пиксели*Кадры)                      : 0.904
Размер потока                            : 944 Мбайт (99%)
Библиотека кодирования                   : x264 core 114
Настройки программы                      : cabac=1 / ref=3 / deblock=1:0:0 / analyse=0x3:0x113 / me=hex / subme=7 / psy=1 / psy_rd=1.00:0.00 / mixed_ref=1 / me_range=16 / chroma_me=1 / trellis=1 / 8x8dct=1 / cqm=2 / deadzone=21,11 / fast_pskip=1 / chroma_qp_offset=-2 / threads=12 / sliced_threads=0 / slices=1 / nr=0 / decimate=1 / interlaced=0 / constrained_intra=0 / bframes=3 / b_pyramid=0 / b_adapt=1 / b_bias=0 / direct=1 / weightb=1 / open_gop=0 / weightp=2 / keyint=250 / keyint_min=25 / scenecut=40 / intra_refresh=0 / rc_lookahead=40 / rc=cbr / mbtree=1 / bitrate=23000 / ratetol=1.0 / qcomp=0.60 / qpmin=3 / qpmax=69 / qpstep=4 / vbv_maxrate=23000 / vbv_bufsize=22986 / nal_hrd=cbr / ip_ratio=1.40 / aq=1:1.00
Цветовой диапазон                        : Limited
Основные цвета                           : BT.709
Характеристики трансфера                 : BT.709
Коэффициенты матрицы                     : BT.709

Аудио
Идентификатор                            : 1
Формат                                   : AAC
Формат/Информация                        : Advanced Audio Codec
Профиль формата                          : LC
Идентификатор кодека                     : 40
Продолжительность                        : 6 м. 20 с.
Вид битрейта                             : Переменный
Битрейт                                  : 128 Кбит/сек
Максимальный битрейт                     : 576 Кбит/сек
Каналы                                   : 2 канала
Расположение каналов                     : Front: L R
Частота                                  : 48,0 КГц
Частота кадров                           : 46,875 кадров/сек (1024 spf)
Метод сжатия                             : С потерями
Размер потока                            : 5,80 Мбайт (1%)
В раздаче присутствует 11 кадров из фильма, в разрешении 1920х1049, в формате TIF.
info [Профиль]  [ЛС] 

post 11-Фев-2016 20:53 (спустя 58 минут) [-]0[+]

Топик был перенесен из форума Анонсы в форум Зарубежные короткометражные мультфильмы

BZzz
 

bratboga

Пол: Пол:Муж

Стаж: 10 месяцев 21 день

Сообщений: 53

Белоруссия
Рейтинг

post 11-Фев-2016 22:17 (спустя 2 часа 23 минуты) [-]2[+]

[Цитировать] 

Отличный мульт.смотрел давно его.сейчас с удовольствием пересмотрел с сыном.Спасибо

_________________
Почётный пользователь нелегального софта
info [Профиль]  [ЛС] 

King HuhricK

Пол: Пол:Муж

Стаж: 6 лет 9 месяцев

Сообщений: 119

Кот-д’Ивуар
Рейтинг

post 11-Фев-2016 22:41 (спустя 23 минуты) [-]0[+]

[Цитировать] 

Это просто офигительно....нет слов.....!!!!Неожиданная "как бы концовка" заставляет о многом задуматься...Спасибо!

_________________
info [Профиль]  [ЛС] 

freeman38

Стаж: 7 лет 3 месяца

Сообщений: 21

Рейтинг

post 12-Фев-2016 01:21 (спустя 2 часа 39 минут) [-]2[+]

[Цитировать] 

спасибо,посмотрю! а есть возможность выложить пак данного автора? заранее спасибо!
info [Профиль]  [ЛС] 

Wootz

Пол: Пол:Муж

Стаж: 7 лет 2 месяца

Сообщений: 133

Сирия
Рейтинг

post 12-Фев-2016 10:21 (спустя 9 часов) [-]0[+]

[Цитировать] 

Что найду из его творчества постараюсь выложить. На счёт пака, сомневаюсь.
info [Профиль]  [ЛС] 
Показать сообщения:    
Ответить на тему

Текущее время: 04-Дек 10:10

Часовой пояс: GMT + 4



Вы не можете начинать темы
Вы не можете отвечать на сообщения
Вы не можете редактировать свои сообщения
Вы не можете удалять свои сообщения
Вы не можете голосовать в опросах
Вы не можете прикреплять файлы к сообщениям
Вы не можете скачивать файлы