Ошибка

Город, в котором пропал лишь я / Erased / Boku dake ga Inai Machi (TV) [1-12 из 12] [2016] [Сверхъестественное, драма, психологический, мистика] [HDTV720p] [Любительский (Многоголосый)+Sub]

Ответить на тему
 
Автор Сообщение

Chel90RUS

Пол: Пол:Муж

Стаж: 5 лет 5 месяцев

Сообщений: 413

Россия
Рейтинг

post 11-Фев-2016 00:55 1[+]

[Цитировать] 

pic="http://static2.anidub.com/tracker/poster/a060a780dc.jpg"
Город, в котором пропал лишь я
Erased / Boku dake ga Inai Machi / 僕だけがいない街

Год выпуска: 2016
Страна: Япония
Жанр: Сверхъестественное, драма, психологический, мистика
Тип: HDTV
Продолжительность: 12 серий ~ 25 минут
Дата выпуска: c 08.01.2016 по 25.03.2016
Студия: A-1 Pictures
Режиссер: Ито Томохико
Автор оригинала: Самбэ Кэй
Озвучено: BalFor, Trina_D, Nika Lenina
Перевод: Jeka Присутствуют субтитры отдельными файлами
Информация о видео:
Тип носителя: HDTV 720p | Формат: MP4

Аудио: AAC 48000Hz stereo 181kbps [A: ?????????? ????? Apple [rus] (aac lc, 48000 Hz, stereo, 181 kb/s)]
Видео: MPEG4 Video (H264) 1280x720 23.976fps 1867kbps [V: 264 (h264 high L4.1, yuv420p, 1280x720, 1867 kb/s)]

General
Complete name : \[AniDub]_Boku_dake_ga_Inai_Machi_[05]_[720p_x264_Aac]_[MVO].mp4
Format : MPEG-4
Format profile : Base Media
Codec ID : isom
File size : 338 MiB
Duration : 23mn 5s
Overall bit rate mode : Variable
Overall bit rate : 2 045 Kbps
Encoded date : UTC 2016-02-09 11:23:23
Tagged date : UTC 2016-02-09 11:23:23
Writing application : Yamb 2.1.0.0

Video
ID : 1
Format : AVC
Format/Info : Advanced Video Codec
Format profile : High@L4.1
Format settings, CABAC : Yes
Format settings, ReFrames : 4 frames
Codec ID : avc1
Codec ID/Info : Advanced Video Coding
Duration : 22mn 59s
Bit rate : 1 867 Kbps
Maximum bit rate : 18.2 Mbps
Width : 1 280 pixels
Height : 720 pixels
Display aspect ratio : 16:9
Frame rate mode : Constant
Frame rate : 23.976 fps
Color space : YUV
Chroma subsampling : 4:2:0
Bit depth : 8 bits
Scan type : Progressive
Bits/(Pixel*Frame) : 0.085
Stream size : 307 MiB (91%)
Title : 264
Writing library : x264 core 129 r2245+729M 1a52e03
Encoding settings : cabac=1 / ref=4 / deblock=1:1:-1 / analyse=0x3:0x113 / me=umh / subme=9 / psy=1 / fade_compensate=0.00 / psy_rd=1.00:0.00 / mixed_ref=1 / me_range=24 / chroma_me=1 / trellis=2 / 8x8dct=1 / cqm=0 / deadzone=21,11 / fast_pskip=1 / chroma_qp_offset=-2 / threads=8 / lookahead_threads=1 / sliced_threads=0 / nr=0 / decimate=1 / interlaced=0 / bluray_compat=0 / constrained_intra=0 / fgo=0 / bframes=9 / b_pyramid=2 / b_adapt=2 / b_bias=0 / direct=1 / weightb=1 / open_gop=0 / weightp=2 / keyint=240 / keyint_min=24 / scenecut=40 / intra_refresh=0 / rc=crf / mbtree=0 / crf=17.5 / qcomp=0.72 / qpmin=0 / qpmax=69 / qpstep=4 / ip_ratio=1.40 / pb_ratio=1.30 / aq=1:0.85
Encoded date : UTC 2016-02-04 22:35:04
Tagged date : UTC 2016-02-09 11:23:29
Color range : Limited
Color primaries : BT.709
Transfer characteristics : BT.709
Matrix coefficients : BT.709

Audio
ID : 2
Format : AAC
Format/Info : Advanced Audio Codec
Format profile : LC
Codec ID : 40
Duration : 23mn 5s
Bit rate mode : Variable
Bit rate : 181 Kbps
Maximum bit rate : 296 Kbps
Channel(s) : 2 channels
Channel positions : Front: L R
Sampling rate : 48.0 KHz
Compression mode : Lossy
Stream size : 29.9 MiB (9%)
Title : ?????????? ????? Apple
Language : Russian
Encoded date : UTC 2016-02-09 11:23:28
Tagged date : UTC 2016-02-09 11:23:29

Описание: Фужинума Сатору — целеустремленный мангака, страдающий от того, что не может выразить себя в своих работах. Именно из-за этого недостатка большинство его работ отклоняются редакторами. Кроме этого, Фуджинума обладает сверхъестественным даром замечать мелочи, что заставляет его помогать людям…

Добавлена 12 серия и сабы 29/03/2016
info [Профиль]  [ЛС] 

Chel90RUS

Пол: Пол:Муж

Стаж: 5 лет 5 месяцев

Сообщений: 413

Россия
Рейтинг

post 18-Фев-2016 23:13 (спустя 7 дней) [-]0[+]

[Цитировать] 

Добавлена 6 серия 18/02/2016

_________________
info [Профиль]  [ЛС] 

Chel90RUS

Пол: Пол:Муж

Стаж: 5 лет 5 месяцев

Сообщений: 413

Россия
Рейтинг

post 24-Фев-2016 15:09 (спустя 5 дней) [-]0[+]

[Цитировать] 

Добавлена 7 серия 24/02/2016

_________________
info [Профиль]  [ЛС] 

Йонон

Пол: Пол:Муж

Стаж: 6 лет

Сообщений: 10

Рейтинг

post 25-Фев-2016 14:43 (спустя 23 часа) [-]4[+]

[Цитировать] 

Вариант с "Город в котором меня нет" звучит всё-же лучше.
info [Профиль]  [ЛС] 

Chel90RUS

Пол: Пол:Муж

Стаж: 5 лет 5 месяцев

Сообщений: 413

Россия
Рейтинг

post 04-Мар-2016 23:16 (спустя 8 дней) [-]0[+]

[Цитировать] 

Добавлена 8 серия 04/03/2016

_________________
info [Профиль]  [ЛС] 

Chel90RUS

Пол: Пол:Муж

Стаж: 5 лет 5 месяцев

Сообщений: 413

Россия
Рейтинг

post 05-Мар-2016 23:22 (спустя 1 день) [-]1[+]

[Цитировать] 

Йонон писал(а):

Вариант с "Город в котором меня нет" звучит всё-же лучше.
Второе английское название "The Town Where Only I am Missing"

_________________
info [Профиль]  [ЛС] 

Chel90RUS

Пол: Пол:Муж

Стаж: 5 лет 5 месяцев

Сообщений: 413

Россия
Рейтинг

post 11-Мар-2016 10:06 (спустя 5 дней) [-]0[+]

[Цитировать] 

Добавлена 9 серия 11/03/2016

_________________
info [Профиль]  [ЛС] 

Chel90RUS

Пол: Пол:Муж

Стаж: 5 лет 5 месяцев

Сообщений: 413

Россия
Рейтинг

post 16-Мар-2016 16:15 (спустя 5 дней) [-]0[+]

[Цитировать] 

Добавлена 10 серия 16/03/2016

_________________
info [Профиль]  [ЛС] 

Chel90RUS

Пол: Пол:Муж

Стаж: 5 лет 5 месяцев

Сообщений: 413

Россия
Рейтинг

post 25-Мар-2016 11:22 (спустя 8 дней) [-]0[+]

[Цитировать] 

Добавлена 11 серия 25/03/2016

_________________
info [Профиль]  [ЛС] 

Chel90RUS

Пол: Пол:Муж

Стаж: 5 лет 5 месяцев

Сообщений: 413

Россия
Рейтинг

post 29-Мар-2016 23:47 (спустя 4 дня) [-]0[+]

[Цитировать] 

Добавлена 12 серия и сабы 29/03/2016

_________________
info [Профиль]  [ЛС] 

Нелюдь

Пол: Пол:Муж

Стаж: 7 лет 5 месяцев

Сообщений: 50

СССР
Рейтинг

post 30-Мар-2016 22:28 (спустя 22 часа) [-]2[+]

[Цитировать] 

Шикарная штука. Запоем посмотрел(:

_________________
Порабощай и властвуй :3
info [Профиль]  [ЛС] 

TWiD

Пол: Пол:Муж

Стаж: 6 лет 2 месяца

Сообщений: 48

Россия
Рейтинг

post 04-Апр-2016 00:57 (спустя 4 дня) [-]0[+]

[Цитировать] 

Давно не видел настолько интересного аниме.
Благо скачал, когда на раздаче было уже 11 серий.
Сериал смотрится взахлеб, одна серия за другой.

_________________
Я вижу сны, которые никто больше не видит,
Я выкинул все ненужное.
В моей душе живут мысли,
От которых никак не избавиться.
Когда-нибудь я покажу вам сверкающее небо...
info [Профиль]  [ЛС] 
Показать сообщения:    
Ответить на тему

Текущее время: 06-Дек 00:46

Часовой пояс: GMT + 4



Вы не можете начинать темы
Вы не можете отвечать на сообщения
Вы не можете редактировать свои сообщения
Вы не можете удалять свои сообщения
Вы не можете голосовать в опросах
Вы не можете прикреплять файлы к сообщениям
Вы не можете скачивать файлы