Ошибка

Искусство падения / Падшее искусство / Fallen art / Sztuka spadania (Томек Багински / Tomek Baginski) [2004 г. мультфильм, короткометражный, WEB-DL 720p]

Ответить на тему
 
Автор Сообщение

Wootz

Пол: Пол:Муж

Стаж: 7 лет 2 месяца

Сообщений: 134

Сирия
Рейтинг

post 10-Фев-2016 16:24 0[+]

[Цитировать] 

Fallen art / Sztuka spadania
Искусство падения / Падшее Искусство


Год выпуска: 2004
Страна: Польша
Студия: Platige Image
Жанр: мультфильм, короткометражный
Продолжительность: 00:05:42
Перевод: Не требуется

Режиссер: Томек Багински / Tomek Baginski / Tomasz Baginski

Описание:
Атол. Старая, затерянная где-то в Тихом океане военная база...
Солдаты, потерявшие разум в отгремевших военных операциях, были собраны вместе, чтобы закончить свою, еще одну, но уже заключительную миссию. Тут, далеко от цивилизации живут: Сержант Эл, который упивается своей безграничной властью над солдатами. Доктор Фредрик, по совместительству фотограф. И старый, астматичный, двинутый Генерал А, который создаёт "своё" искусство, но не на бумаге или холсте... Он творит нечто совсем иное...

Качество: WEB-DL 720p
Формат: MP4
Видео: MPEG4 Video (H264) 1280x720 25fps 21173 Кбит/сек
Аудио: AAC 48000Hz stereo 128 Кбит/сек





Код:

Общее
Полное имя                               : ...fallen-art-720p.mp4
Формат                                   : MPEG-4
Профиль формата                          : Base Media / Version 2
Идентификатор кодека                     : mp42 (mp42/isom/avc1)
Размер файла                             : 868 Мбайт
Продолжительность                        : 5 м. 41 с.
Режим общего битрейта                    : Переменный
Общий поток                              : 21,3 Мбит/сек
Программа кодирования                    : TMPGEnc Video Mastering Works 5 Version. 5.0.6.38

Видео
Идентификатор                            : 2
Формат                                   : AVC
Формат/Информация                        : Advanced Video Codec
Профиль формата                          : High@L3.2
Параметр CABAC формата                   : Да
Параметр ReFrames формата                : 3 кадра
Идентификатор кодека                     : avc1
Идентификатор кодека/Информация          : Advanced Video Coding
Продолжительность                        : 5 м. 41 с.
Вид битрейта                             : Постоянный
Битрейт                                  : 21,2 Мбит/сек
Номинальный битрейт                      : 23,0 Мбит/сек / 23,0 Мбит/сек
Ширина                                   : 1280 пикселей
Высота                                   : 720 пикселей
Соотношение сторон                       : 16:9
Режим частоты кадров                     : Постоянный
Частота кадров                           : 25,000 кадров/сек
Стандарт вещания                         : NTSC
Цветовое пространство                    : YUV
Субдискретизация насыщенности            : 4:2:0
Битовая глубина                          : 8 бит
Тип развёртки                            : Прогрессивная
Бит/(Пиксели*Кадры)                      : 0.919
Размер потока                            : 863 Мбайт (99%)
Библиотека кодирования                   : x264 core 114
Настройки программы                      : cabac=1 / ref=3 / deblock=1:0:0 / analyse=0x3:0x113 / me=hex / subme=7 / psy=1 / psy_rd=1.00:0.00 / mixed_ref=1 / me_range=16 / chroma_me=1 / trellis=1 / 8x8dct=1 / cqm=2 / deadzone=21,11 / fast_pskip=1 / chroma_qp_offset=-2 / threads=12 / sliced_threads=0 / slices=1 / nr=0 / decimate=1 / interlaced=0 / constrained_intra=0 / bframes=3 / b_pyramid=0 / b_adapt=1 / b_bias=0 / direct=1 / weightb=1 / open_gop=0 / weightp=2 / keyint=250 / keyint_min=25 / scenecut=40 / intra_refresh=0 / rc_lookahead=40 / rc=cbr / mbtree=1 / bitrate=23000 / ratetol=1.0 / qcomp=0.60 / qpmin=3 / qpmax=69 / qpstep=4 / vbv_maxrate=23000 / vbv_bufsize=22986 / nal_hrd=cbr / ip_ratio=1.40 / aq=1:1.00
Цветовой диапазон                        : Limited
Основные цвета                           : BT.709
Характеристики трансфера                 : BT.709
Коэффициенты матрицы                     : BT.709

Аудио
Идентификатор                            : 1
Формат                                   : AAC
Формат/Информация                        : Advanced Audio Codec
Профиль формата                          : LC
Идентификатор кодека                     : 40
Продолжительность                        : 5 м. 41 с.
Вид битрейта                             : Переменный
Битрейт                                  : 128 Кбит/сек
Максимальный битрейт                     : 576 Кбит/сек
Каналы                                   : 2 канала
Расположение каналов                     : Front: L R
Частота                                  : 48,0 КГц
Частота кадров                           : 46,875 кадров/сек (1024 spf)
Метод сжатия                             : С потерями
Размер потока                            : 5,21 Мбайт (1%)
В раздаче присутствует 9 кадров из фильма, в разрешении 1920х1039, в формате TIF.
info [Профиль]  [ЛС] 

post 10-Фев-2016 16:43 (спустя 19 минут) [-]0[+]

Топик был перенесен из форума Анонсы в форум Зарубежные короткометражные мультфильмы

BZzz
 

Dark Ogr

Пол: Пол:Муж

Стаж: 6 лет 2 месяца

Сообщений: 77

Россия
Рейтинг

post 10-Фев-2016 17:18 (спустя 53 минуты) [-]1[+]

[Цитировать] 

великий мульт,особенно саундтрек)

_________________
гырмугаго ибыгунько сраго!
info [Профиль]  [ЛС] 

Wootz

Пол: Пол:Муж

Стаж: 7 лет 2 месяца

Сообщений: 134

Сирия
Рейтинг

post 10-Фев-2016 17:25 (спустя 7 минут) [-]1[+]

[Цитировать] 

Dark Ogr писал(а):

...особенно саундтрек)
Fanfare Ciocarlia - Asfalt Tango
info [Профиль]  [ЛС] 

zlobnoezlo

Стаж: 7 лет 3 месяца

Сообщений: 280

Россия
Рейтинг

post 10-Фев-2016 17:29 (спустя 4 минуты) [-]0[+]

[Цитировать] 

Крутой мульт! Спасибо!
info [Профиль]  [ЛС] 

bambycha58

Пол: Пол:Муж

Стаж: 4 года 9 месяцев

Сообщений: 11

Россия
Рейтинг

post 10-Фев-2016 17:30 (спустя 57 секунд) [-]0[+]

[Цитировать] 

лет 10 назад его увидел случайно у кого то в видороликах на компе, тогда еще люди их держали на винте =) И долго не мог потом найти название... Вобщем согласен с комментом выше это шедевральный мульт и музыка очень похожа на саунд фильмов Кустурицы.
info [Профиль]  [ЛС] 

kalyan82

Пол: Пол:Муж

Стаж: 4 года 1 месяц

Сообщений: 108

Россия
Рейтинг

post 10-Фев-2016 17:47 (спустя 17 минут) [-]0[+]

[Цитировать] 

кому надо: Fanfara Ciorcalia
info [Профиль]  [ЛС] 

megagangster

Пол: Пол:Муж

Стаж: 6 лет 1 месяц

Сообщений: 20

Рейтинг

post 10-Фев-2016 22:29 (спустя 4 часа) [-]1[+]

[Цитировать] 

Да, мульт крутой. Смотрел его на смартфоне в далеком 2005 году где-то... Спасибо!

_________________
info [Профиль]  [ЛС] 

Ahuramazda

Пол: Пол:Муж

Стаж: 3 года 7 месяцев

Сообщений: 68

Буркина Фасо
Рейтинг

post 14-Фев-2016 03:15 (спустя 3 дня) [-]0[+]

[Цитировать] 

Адовый мульт. Всё как в жизни: старики забивают головы молодым пафосной чушью и отправляют их умирать ради своего развлечения.
info [Профиль]  [ЛС] 
Показать сообщения:    
Ответить на тему

Текущее время: 08-Дек 02:21

Часовой пояс: GMT + 4



Вы не можете начинать темы
Вы не можете отвечать на сообщения
Вы не можете редактировать свои сообщения
Вы не можете удалять свои сообщения
Вы не можете голосовать в опросах
Вы не можете прикреплять файлы к сообщениям
Вы не можете скачивать файлы