Ошибка

Иван Царевич и Серый Волк 3 (Дарина Шмидт) [2015, Мультфильм, приключения, семейный, WEB-DLRip]

Ответить на тему
 
Автор Сообщение

L

Пол: Пол:Муж

Стаж: 6 лет 7 месяцев

Сообщений: 10757

Украина
Рейтинг

post 03-Фев-2016 10:55 2[+]

[Цитировать] 

Иван Царевич и Серый Волк 3
Оригинальное название: Иван Царевич и Серый Волк 3
Год выпуска: 2015
Жанр: Мультфильм, приключения, семейный
Выпущено: Россия, Кинокомпания СТВ, Анимационная студия Мельница
Продолжительность: 01:16:55
Язык: Русский | лицензия iTunes

Режиссер: Дарина Шмидт
В ролях: Никита Ефремов, Иван Охлобыстин, Михаил Боярский

О фильме: Царь Тридевятого царства, в честь своего 150-летия решил, что с него хватит — пора на заслуженный отдых. «Я устал. Я ухожу», — заявил самодержец и с удочкой и ведёрком удалился в деревенскую глушь. А оберегать государство остались Иван с Серым Волком. Вот только Василиса, жена Ивана, заявила, что свадебного путешествия у неё не было, заграницу она не видела, «постить» в инстаграм решительно нечего и вообще. Иван спорить не стал, а вместе с Василисой, Котом — ученым и Серым Волком, погрузился на ковер-самолет и отправился в путь. А за главного в стране герои оставили самое обычное огородное пугало… Но пока компания шаталась по Миланам и Парижам, Пугало ожило и начало наводить свои порядки в Тридевятом царстве…

Качество: WEB-DLRip
Формат: AVI
Видео: XviD, 2148 Кбит/с, 720x400
Аудио: AC3, 2 ch, 384 Кбит/с
Полное имя : D:\V\CeP1i.B0Lk.3.2015.D.WEB-DLRip.avi
Формат : AVI
Формат/Информация : Audio Video Interleave
Размер файла : 1,37 Гбайт
Продолжительность : 1 ч. 16 м.
Общий поток : 2541 Кбит/сек
Программа кодирования : VirtualDubMod 1.5.10.3 | www.virtualdub-fr.org || (build 2550/release)
Библиотека кодирования : VirtualDubMod build 2550/release

Видео
Идентификатор : 0
Формат : MPEG-4 Visual
Профиль формата : Advanced Simple@L5
Параметр BVOP формата : 2
Параметр QPel формата : Нет
Параметр GMC формата : Без точки перехода
Параметр матрицы формата : Default (MPEG)
Идентификатор кодека : XVID
Идентификатор кодека/Подсказка : XviD
Продолжительность : 1 ч. 16 м.
Битрейт : 2148 Кбит/сек
Ширина : 720 пикселей
Высота : 400 пикселей
Соотношение сторон : 16:9
Частота кадров : 24,000 кадра/сек
Цветовое пространство : YUV
Субдискретизация насыщенности : 4:2:0
Битовая глубина : 8 бит
Тип развёртки : Прогрессивная
Метод сжатия : С потерями
Бит/(Пиксели*Кадры) : 0.296
Размер потока : 1,10 Гбайт (81%)
Библиотека кодирования : XviD 1.2.1 (UTC 2008-12-04)

Аудио
Идентификатор : 1
Формат : AC-3
Формат/Информация : Audio Coding 3
Расширение режима : CM (complete main)
Параметр Endianness формата : Big
Идентификатор кодека : 2000
Продолжительность : 1 ч. 16 м.
Вид битрейта : Постоянный
Битрейт : 384 Кбит/сек
Каналы : 6 каналов
Расположение каналов : Front: L C R, Side: L R, LFE
Частота : 48,0 КГц
Частота кадров : 31,250 кадров/сек (1536 spf)
Метод сжатия : С потерями
Размер потока : 211 Мбайт (15%)
Выравнивание : Разделение по промежуткам
info [Профиль]  [ЛС] 

DVcon

Пол: Пол:Муж

Стаж: 4 года

Сообщений: 87

Россия
Рейтинг

post 09-Фев-2016 01:14 (спустя 5 дней) [-]0[+]

[Цитировать] 

После просмотра "этого" мне стало страшно и СТЫДНО за современную отечественную мультипликацию...

_________________
info [Профиль]  [ЛС] 

Exiled

Пол: Пол:Муж

Стаж: 7 лет 2 месяца

Сообщений: 80

Россия
Рейтинг

post 09-Фев-2016 16:59 (спустя 15 часов) [-]4[+]

[Цитировать] 

Жаль, что не остановились на единственном первом мультфильме.
После просмотра второй части, страшно было увидеть третью. Всё скатилось в неуникальное ширпотребное качество.
info [Профиль]  [ЛС] 

post 21-Июл-2016 11:16 (спустя 5 месяцев 11 дней) [-]0[+]

Топик был перенесен из форума Новинки 2015-2016 (Rips) в форум Отечественные полнометражные мультфильмы

Formula
 
Показать сообщения:    
Ответить на тему

Текущее время: 03-Дек 10:52

Часовой пояс: GMT + 4



Вы не можете начинать темы
Вы не можете отвечать на сообщения
Вы не можете редактировать свои сообщения
Вы не можете удалять свои сообщения
Вы не можете голосовать в опросах
Вы не можете прикреплять файлы к сообщениям
Вы не можете скачивать файлы