Ошибка

До окончания фрилича осталось:


Иван Царевич и Серый Волк 3 (Дарина Шмидт) [2015, Мультфильм, приключения, семейный, WEB-DL 720p]

Ответить на тему
 
Автор Сообщение

L

Пол: Пол:Муж

Стаж: 6 лет 8 месяцев

Сообщений: 10838

Украина
Рейтинг

post 03-Фев-2016 10:46 1[+]

[Цитировать] 

Иван Царевич и Серый Волк 3
Оригинальное название: Иван Царевич и Серый Волк 3
Год выпуска: 2015
Жанр: Мультфильм, приключения, семейный
Выпущено: Россия, Кинокомпания СТВ, Анимационная студия Мельница
Продолжительность: 01:16:55
Язык: Русский | лицензия iTunes

Режиссер: Дарина Шмидт
В ролях: Никита Ефремов, Иван Охлобыстин, Михаил Боярский

О фильме: Царь Тридевятого царства, в честь своего 150-летия решил, что с него хватит — пора на заслуженный отдых. «Я устал. Я ухожу», — заявил самодержец и с удочкой и ведёрком удалился в деревенскую глушь. А оберегать государство остались Иван с Серым Волком. Вот только Василиса, жена Ивана, заявила, что свадебного путешествия у неё не было, заграницу она не видела, «постить» в инстаграм решительно нечего и вообще. Иван спорить не стал, а вместе с Василисой, Котом — ученым и Серым Волком, погрузился на ковер-самолет и отправился в путь. А за главного в стране герои оставили самое обычное огородное пугало… Но пока компания шаталась по Миланам и Парижам, Пугало ожило и начало наводить свои порядки в Тридевятом царстве…

Качество: WEB-DL 720p
Формат: MKV
Видео: MPEG-4 AVC, 3782 Кбит/с, 1280x720
Аудио: AC3, 2 ch, 384 Кбит/с
Уникальный идентификатор : 172125858994730946085169400232922027399 (0x817E3C0F04359CC2859EA34AEDA39587)
Полное имя : D:\V\CeP1i.B0Lk.3.2015.D.WEB-DL.720p.mkv
Формат : Matroska
Версия формата : Version 4 / Version 2
Размер файла : 2,28 Гбайт
Продолжительность : 1 ч. 16 м.
Общий поток : 4251 Кбит/сек
Дата кодирования : UTC 2016-02-02 21:26:26
Программа кодирования : mkvmerge v8.3.0 ('Over the Horizon') 64bit
Библиотека кодирования : libebml v1.3.1 + libmatroska v1.4.2

Видео
Идентификатор : 1
Формат : AVC
Формат/Информация : Advanced Video Codec
Профиль формата : High@L3.1
Параметр CABAC формата : Нет
Параметр ReFrames формата : 2 кадра
Идентификатор кодека : V_MPEG4/ISO/AVC
Продолжительность : 1 ч. 16 м.
Битрейт : 3782 Кбит/сек
Ширина : 1280 пикселей
Высота : 720 пикселей
Соотношение сторон : 16:9
Режим частоты кадров : Постоянный
Частота кадров : 24,000 кадра/сек
Цветовое пространство : YUV
Субдискретизация насыщенности : 4:2:0
Битовая глубина : 8 бит
Тип развёртки : Прогрессивная
Бит/(Пиксели*Кадры) : 0.171
Размер потока : 2,03 Гбайт (89%)
Язык : English
Default : Да
Forced : Нет
Цветовой диапазон : Limited
Основные цвета : BT.709
Характеристики трансфера : BT.709
Коэффициенты матрицы : BT.709

Аудио
Идентификатор : 2
Формат : AC-3
Формат/Информация : Audio Coding 3
Расширение режима : CM (complete main)
Параметр Endianness формата : Big
Идентификатор кодека : A_AC3
Продолжительность : 1 ч. 16 м.
Вид битрейта : Постоянный
Битрейт : 384 Кбит/сек
Каналы : 6 каналов
Расположение каналов : Front: L C R, Side: L R, LFE
Частота : 48,0 КГц
Частота кадров : 31,250 кадров/сек (1536 spf)
Метод сжатия : С потерями
Размер потока : 211 Мбайт (9%)
Язык : Russian
Default : Да
Forced : Нет

Меню
00:00:00.000 : en:Глава 1
00:03:39.541 : en:Глава 2
00:06:27.499 : en:Глава 3
00:10:29.040 : en:Глава 4
00:15:02.873 : en:Глава 5
00:20:07.081 : en:Глава 6
00:25:29.414 : en:Глава 7
00:30:57.080 : en:Глава 8
00:36:55.705 : en:Глава 9
00:41:58.871 : en:Глава 10
00:46:41.537 : en:Глава 11
00:51:33.245 : en:Глава 12
00:57:08.286 : en:Глава 13
01:01:36.911 : en:Глава 14
01:07:09.369 : en:Глава 15
info [Профиль]  [ЛС] 

Ahuramazda

Пол: Пол:Муж

Стаж: 3 года 7 месяцев

Сообщений: 68

Буркина Фасо
Рейтинг

post 03-Фев-2016 23:55 (спустя 13 часов) [-]0[+]

[Цитировать] 

Сюжет ни разу ничего не напомнил=)
info [Профиль]  [ЛС] 

Dragynovich

Стаж: 2 года 6 месяцев

Сообщений: 2

Рейтинг

post 04-Фев-2016 01:11 (спустя 1 час 15 минут) [-]0[+]

[Цитировать] 

Ну что сказать. Мультфильм хорош и сделан в стиле мельницы. Популярная тема задетая сюжетом (Правда повидло а не нефть Улыбаюсь ). Сюжет веселый и интересный! Но один ли я заметил что время от времени стиль рисования менялся?
info [Профиль]  [ЛС] 

post 21-Июл-2016 10:30 (спустя 5 месяцев 17 дней) [-]0[+]

Топик был перенесен из форума Новинки 2015-2016 (Web-DL, DVD, HD DVD, Blu-ray, HD Rips) в форум Мультфильмы (HD Video)

Formula
 
Показать сообщения:    
Ответить на тему

Текущее время: 10-Дек 14:49

Часовой пояс: GMT + 4



Вы не можете начинать темы
Вы не можете отвечать на сообщения
Вы не можете редактировать свои сообщения
Вы не можете удалять свои сообщения
Вы не можете голосовать в опросах
Вы не можете прикреплять файлы к сообщениям
Вы не можете скачивать файлы