Ошибка

Иван Царевич и Серый Волк 3 (Дарина Шмидт) [2015, мультфильм, приключения, семейный, WEB-DL 1080p]

Ответить на тему
 
Автор Сообщение

BZzz

Пол: Пол:Муж

Стаж: 5 лет 1 месяц

Сообщений: 3647

Россия
Рейтинг

post 03-Фев-2016 10:02 1[+]

[Цитировать] 

Иван Царевич и Серый Волк 3
-




Год выпуска: 2015
Страна: Россия
Жанр: мультфильм, приключения, семейный
Продолжительность: 01:16:55
Перевод: Оригинал [цифровая лицензия iTunes]

Режиссер: Дарина Шмидт

В ролях: Никита Ефремов (Иван Царевич, озвучка), Иван Охлобыстин (Царь, озвучка), Михаил Боярский (Кот, озвучка), Артур Смольянинов (Серый волк, озвучка), Татьяна Бунина (Василиса, озвучка), Михаил Хрусталев (Пугало Пал Палыч, озвучка), Дмитрий Высоцкий (Тонкий, озвучка), Олег Куликович (Толстый, озвучка), Анатолий Петров (Соловей, озвучка), Роман Никитин (Кеша, озвучка), Константин Бронзит (Щука, озвучка)


Описание: Царь Тридевятого царства, в честь своего 150-летия решил, что с него хватит — пора на заслуженный отдых. «Я устал. Я ухожу», — заявил самодержец и с удочкой и ведёрком удалился в деревенскую глушь. А оберегать государство остались Иван с Серым Волком. Вот только Василиса, жена Ивана, заявила, что свадебного путешествия у неё не было, заграницу она не видела, «постить» в инстаграм решительно нечего и вообще. Иван спорить не стал, а вместе с Василисой, Котом — ученым и Серым Волком, погрузился на ковер-самолет и отправился в путь. А за главного в стране герои оставили самое обычное огородное пугало… Но пока компания шаталась по Миланам и Парижам, Пугало ожило и начало наводить свои порядки в Тридевятом царстве…

Сборы в России: $9 409 124



Качество: WEB-DL 1080p
Формат: MKV
Видео кодек: AVC
Аудио кодек: AC3
Видео: 1920x1080 (16:9), 24.000 fps, High@L4.0, 5 098 Kbps
Аудио #1: AC3, 384 Kbps, 48.0 KHz, 6 ch
General
Unique ID : 191773484714821405634008272403263788392 (0x90463ACBFE0AA8FEBAC407A21FC21568)
Complete name : Ivan.i.Seryi.volk.3.2015.D.WEB-DL.1080p.mkv
Format : Matroska
Format version : Version 4 / Version 2
File size : 3.01 GiB
Duration : 1h 16mn
Overall bit rate : 5 593 Kbps
Encoded date : UTC 2016-02-02 21:28:33
Writing application : mkvmerge v8.3.0 ('Over the Horizon') 64bit
Writing library : libebml v1.3.1 + libmatroska v1.4.2

Video
ID : 1
Format : AVC
Format/Info : Advanced Video Codec
Format profile : High@L4.0
Format settings, CABAC : Yes
Format settings, ReFrames : 4 frames
Codec ID : V_MPEG4/ISO/AVC
Duration : 1h 16mn
Bit rate : 5 098 Kbps
Width : 1 920 pixels
Height : 1 080 pixels
Display aspect ratio : 16:9
Frame rate mode : Constant
Frame rate : 24.000 fps
Color space : YUV
Chroma subsampling : 4:2:0
Bit depth : 8 bits
Scan type : Progressive
Bits/(Pixel*Frame) : 0.102
Stream size : 2.74 GiB (91%)
Language : English
Default : Yes
Forced : No
Color primaries : BT.709
Transfer characteristics : BT.709
Matrix coefficients : BT.709

Audio
ID : 2
Format : AC-3
Format/Info : Audio Coding 3
Mode extension : CM (complete main)
Format settings, Endianness : Big
Codec ID : A_AC3
Duration : 1h 16mn
Bit rate mode : Constant
Bit rate : 384 Kbps
Channel(s) : 6 channels
Channel positions : Front: L C R, Side: L R, LFE
Sampling rate : 48.0 KHz
Bit depth : 16 bits
Compression mode : Lossy
Stream size : 211 MiB (7%)
Language : Russian
Default : Yes
Forced : No

Menu
00:00:00.000 : en:Глава 1
00:03:39.541 : en:Глава 2
00:06:27.499 : en:Глава 3
00:10:29.040 : en:Глава 4
00:15:02.873 : en:Глава 5
00:20:07.081 : en:Глава 6
00:25:29.414 : en:Глава 7
00:30:57.080 : en:Глава 8
00:36:55.705 : en:Глава 9
00:41:58.871 : en:Глава 10
00:46:41.537 : en:Глава 11
00:51:33.245 : en:Глава 12
00:57:08.286 : en:Глава 13
01:01:36.911 : en:Глава 14
01:07:09.369 : en:Глава 15
info [Профиль]  [ЛС] 

Алексо

Пол: Пол:Муж

Стаж: 2 года 5 месяцев

Сообщений: 149

Россия
Рейтинг

post 03-Фев-2016 10:35 (спустя 32 минуты) [-]0[+]

[Цитировать] 

Оперативно! Благодарю для галочки и продолжения посмотрим! Пишут мол мульт 50/50
info [Профиль]  [ЛС] 

laziofan

Стаж: 7 лет 1 месяц

Сообщений: 392

Рейтинг

post 03-Фев-2016 10:47 (спустя 12 минут) [-]0[+]

[Цитировать] 

Ждал из за сценария "Квартета И", но любо у них творческий кризис, либо сконцентрированы были на "День выборов 2". Мульт разочаровал.
info [Профиль]  [ЛС] 

topsex

Пол: Пол:Муж

Стаж: 6 лет 8 месяцев

Сообщений: 411

СССР
Рейтинг

post 04-Фев-2016 17:06 (спустя 1 день 6 часов) [-]0[+]

[Цитировать] 

Либо сконцентрировались на очередной рекламе мтс.

_________________
i5@4.0Ghz, 8Gb RAM, Radeon R9 280x 3Gb, SSD, W8.1 x64 \ Xbox 360
info [Профиль]  [ЛС] 

neimlss

Пол: Пол:Муж

Стаж: 6 лет 2 месяца

Сообщений: 8

Россия
Рейтинг

post 04-Фев-2016 20:06 (спустя 2 часа 59 минут) [-]0[+]

[Цитировать] 

самая неудачная часть, через силу досмотрели
info [Профиль]  [ЛС] 

Remak

Стаж: 7 лет 8 месяцев

Сообщений: 405

Рейтинг

post 14-Фев-2016 19:45 (спустя 9 дней) [-]1[+]

[Цитировать] 

Весь фильм туповатая политическая сатира. Не смешная. И это для детей? Для детей там только несколько примитивных гэгов с падениями. В общем да, самая худшая часть. Сценарий писали Квартет И. Сначала бездарная "Cтрана чудес". Теперь это. Походу всё, талант закончился, от "Дня выборов 2" можно уже ничего хорошего не ждать.

добавлено спустя 12 минут:

laziofan писал(а):

Ждал из за сценария "Квартета И", но любо у них творческий кризис, либо сконцентрированы были на "День выборов 2". Мульт разочаровал.
Учитывая, что День Выборов считаю наверное лучшей постсоветской комедией, хотелось бы, что бы причиной стал второй пункт.. Потому что и это плохо и не смешно и Страна Чудес хуже даже Ёлок получилась. Так что новый День Выборов ожидаю уже с опасением.
info [Профиль]  [ЛС] 

Kenzo3101

Пол: Пол:Муж

Стаж: 6 лет 5 месяцев

Сообщений: 457

Предупреждений: 2

Россия
Рейтинг

post 14-Фев-2016 22:59 (спустя 3 часа) [-]0[+]

[Цитировать] 

Абсолютно унылое говно,хотел посмотреть что-то доброе и хорошее,но и тут насрали со своей политотой,дети явно не поймут ни шуток ни сюжет,зря потраченное время
info [Профиль]  [ЛС] 

post 21-Июл-2016 10:29 (спустя 5 месяцев 6 дней) [-]0[+]

Топик был перенесен из форума Новинки 2015-2016 (Web-DL, DVD, HD DVD, Blu-ray, HD Rips) в форум Мультфильмы (HD Video)

Formula
 
Показать сообщения:    
Ответить на тему

Текущее время: 06-Дек 12:16

Часовой пояс: GMT + 4



Вы не можете начинать темы
Вы не можете отвечать на сообщения
Вы не можете редактировать свои сообщения
Вы не можете удалять свои сообщения
Вы не можете голосовать в опросах
Вы не можете прикреплять файлы к сообщениям
Вы не можете скачивать файлы