Ошибка

Теория Большого Взрыва / The Big Bang Theory [Чак Лорри][5 сезон][2011 г., Ситком, WEB-DLRip][Кураж Бамбей]

Ответить на тему
 
Автор Сообщение

maximuslt

Пол: Пол:Муж

Стаж: 6 лет 2 месяца

Сообщений: 6

Россия
Рейтинг

post 25-Янв-2016 22:30 1[+]

[Цитировать] 

Теория Большого Взрыва


Оригинальное название: The Big Bang Theory
Год выпуска: 2011 г.
Страна: США
Производство: CBS
Жанр: Ситком
Сезон: 5
Кол-во серий: 24
Продолжительность: 25 мин.
Перевод: Профессиональный (одноголосый закадровый) Кураж Бамбей
Режиссер: Чак Лорри

В ролях: Джонни Галаки, Джим Парсонс, Кейли Куоко, Саймон Хелберг, Кунал Найар, Сара ГилбертОписание: Два блестящих физика, Леонард и Шелдон, «великие умы», которые понимают как «работает вселенная».
Но их гениальность ничуть не помогает им общаться с людьми, особенно с женщинами. Всё начинает меняться, когда напротив них поселяется красавица Пенни.
Когда Леонард и Шелдон встречают Пенни, Леонард сразу же начинает интересоваться ею. Он видит в общении с Пенни огромную перспективу… вплоть до любви, однако Шелдон понимает, что мечтам его друга не суждено сбыться.
Стоит также отметить пару странных друзей этих физиков: Воловиц, который любит употреблять фразы на разных языках, включая русский, и Раджеш Кутраппали, теряющий дар речи при виде женщин.


Качество видео: WEB-DL(720p)Rip
Формат: MP4
Видео кодек: H.264
Аудио кодек: AAC
Видео: 680 Kbps, 480*272 (16:9), at 23.976 fps, H264
Аудио: 128 kbps, 48.0 KHz, 2 channels, AAC
0501 - The Skank Reflex Analysis
0502 - The Infestation Hypothesis
0503 - The Pulled Groin Extrapolation
0504 - The Wiggly Finger Catalyst
0505 - The Russian Rocket Reaction
0506 - The Rhinitis Revelation
0507 - The Good Guy Fluctuation
0508 - The Isolation Permutation
0509 - The Ornithophobia Diffusion
0510 - The Flaming Spittoon Acquisition
0511 - The Speckerman Recurrence
0512 - The Shiny Trinket Maneuver
0513 - The Recombination Hypothesis
0514 - The Beta Test Initiation
0515 - The Friendship Contraction
0516 - The Vacation Solution
0517 - The Rothman Disintegration
0518 - The Werewolf Transformation
0519 - The Weekend Vortex
0520 - The Transporter Malfunction
0521 - The Hawking Excitation
0522 - The Stag Convergence
0523 - The Launch Acceleration
0524 - The Countdown Reflection
Format: MPEG-4
Format profile: Base Media
Codec ID: isom (isom/avc1)
File size: 125 MiB
Duration: 21mn 32s
Overall bit rate mode: Variable
Overall bit rate: 812 Kbps

Video
ID: 1
Format: AVC
Format/Info: Advanced Video Codec
Format profile: Main@L3
Format settings, CABAC: Yes
Format settings, ReFrames: 3 frames
Codec ID: avc1
Codec ID/Info: Advanced Video Coding
Duration: 21mn 32s
Bit rate: 680 Kbps
Maximum bit rate: 7 238 Kbps
Width: 480 pixels
Height: 272 pixels
Display aspect ratio: 16:9
Frame rate mode: Constant
Frame rate: 23.976 (24000/1001) fps
Color space: YUV
Chroma subsampling: 4:2:0
Bit depth: 8 bits
Scan type: Progressive
Bits/(Pixel*Frame): 0.217
Stream size: 105 MiB (84%)
Writing library: x264 core 115 r1937 aa21558

Audio
ID: 2
Format: AAC
Format/Info: Advanced Audio Codec
Format profile: LC
Codec ID: 40
Duration: 21mn 32s
Bit rate mode: Variable
Bit rate: 128 Kbps
Maximum bit rate: 149 Kbps
Channel(s): 2 channels
Channel positions: Front: L R
Sampling rate: 48.0 KHz
Frame rate: 46.875 fps (1024 spf)
Compression mode: Lossy
Stream size: 19.7 MiB (16%)
info [Профиль]  [ЛС] 
Показать сообщения:    
Ответить на тему

Текущее время: 03-Дек 08:36

Часовой пояс: GMT + 4



Вы не можете начинать темы
Вы не можете отвечать на сообщения
Вы не можете редактировать свои сообщения
Вы не можете удалять свои сообщения
Вы не можете голосовать в опросах
Вы не можете прикреплять файлы к сообщениям
Вы не можете скачивать файлы