Ошибка

До окончания фрилича осталось:


LEGO супергерои DC: Лига справедливости против легиона смерти / Lego DC Comics Super Heroes: Justice League: Attack of the Legion of Doom [2015 г., мультфильм, фантастика, боевик, комедия) HDRip

Ответить на тему
 
Автор Сообщение

oxotnik007

Стаж: 1 год 2 месяца

Сообщений: 16

Эстония
Рейтинг

post 24-Янв-2016 16:40 3[+]

[Цитировать] 

LEGO Супергерои DC Comics – Лига Справедливости: Атака Легиона Гибели / LEGO DC Super Heroes: Justice League - Attack of the Legion of Doom

Год выпуска: 2015
Страна: США
Жанр: мультфильм, фантастика, боевик, комедия
Рейтинг MPAA: не присваивался
Продолжительность: 01:17:01
Перевод: Профессиональный многоголосный (Официальный звук)

Режиссёр: Рик Моралес

В ролях:

Ди Брэдли Бейкер, Трой Бэйкер, Джон Ди Маджио, Грэй Гриффин, Марк Хэмилл, Том Кенни, Нолан Норт, Джошуа Китон, Хари Пэйтон, Кевин Майкл Ричардсон

Описание:

С того момента, как была создана Лига Справедливости, держащая Метрополис в безопасности, преступники все время в бегах, и это огорчает злого гения Лекса Лютора. Вместе с Черной Мантой, Синестро и другими безжалостными союзниками Лекс создает свою команду и называет ее Легион Гибели. Неужели вместе с суперсильной злодейской командой и планом атаки на сверхсекретную правительственную базу, Зону 52, Лекс находится на грани победы? Врубайте тревогу и приготовьтесь, потому что кубики полетят во все стороны, когда Супермен, Бэтмен Чудо-Женщина и остальные участники Лиги Справедливости сразятся лицом к лицу с величайшими суперзлодеями!

Качество: HDRip
Формат: AVI
Видео кодек: XviD
Аудио кодек: AC3
Видео: XviD, 720x400 (16:9), 1765 kbps (0.256 b/px), 23.98 fps
Аудио #1: MPEG-1 Audio layer 3, 321 kbps (CBR), 48.0 KHz, 2 ch
Аудио #2: AC3, 449 kbps (CBR), 48.0 KHz (16 bits), 6 ch

Код:

General
Complete name                            : D:\загрузки\LEGO.Justice.League.Attack.of.the.Legion.of.Doom.2015.HDRip.avi
Format                                   : AVI
Format/Info                              : Audio Video Interleave
File size                                : 1.37 GiB
Duration                                 : 1h 17mn
Overall bit rate                         : 2 547 Kbps
Movie name                               : [Rustorrents.org][Uniongang.tv]
Writing application                      : VirtualDubMod 1.5.10.3 | www.virtualdub-fr.org || (build 2550/release)

Video
ID                                       : 0
Format                                   : MPEG-4 Visual
Format profile                           : Advanced Simple@L5
Format settings, BVOP                    : 2
Format settings, QPel                    : No
Format settings, GMC                     : No warppoints
Format settings, Matrix                  : Custom
Codec ID                                 : XVID
Codec ID/Hint                            : XviD
Duration                                 : 1h 17mn
Bit rate                                 : 1 765 Kbps
Width                                    : 720 pixels
Height                                   : 400 pixels
Display aspect ratio                     : 16:9
Frame rate                               : 23.976 fps
Color space                              : YUV
Chroma subsampling                       : 4:2:0
Bit depth                                : 8 bits
Scan type                                : Progressive
Compression mode                         : Lossy
Bits/(Pixel*Frame)                       : 0.256
Stream size                              : 972 MiB (69%)
Writing library                          : XviD 1.2.1 (UTC 2008-12-04)

Audio #1
ID                                       : 1
Format                                   : MPEG Audio
Format version                           : Version 1
Format profile                           : Layer 3
Mode                                     : Joint stereo
Codec ID                                 : 55
Codec ID/Hint                            : MP3
Duration                                 : 1h 17mn
Bit rate mode                            : Constant
Bit rate                                 : 320 Kbps
Channel(s)                               : 2 channels
Sampling rate                            : 48.0 KHz
Compression mode                         : Lossy
Stream size                              : 176 MiB (13%)
Alignment                                : Aligned on interleaves
Interleave, duration                     : 42 ms (1.00 video frame)
Interleave, preload duration             : 504 ms
Writing library                          : LAME3.99r
Encoding settings                        : -m j -V 4 -q 2 -lowpass 20.5

Audio #2
ID                                       : 2
Format                                   : AC-3
Format/Info                              : Audio Coding 3
Mode extension                           : CM (complete main)
Format settings, Endianness              : Big
Codec ID                                 : 2000
Duration                                 : 1h 17mn
Bit rate mode                            : Constant
Bit rate                                 : 448 Kbps
Channel(s)                               : 6 channels
Channel positions                        : Front: L C R, Side: L R, LFE
Sampling rate                            : 48.0 KHz
Bit depth                                : 16 bits
Compression mode                         : Lossy
Stream size                              : 247 MiB (18%)
Alignment                                : Split accross interleaves
Interleave, duration                     : 42 ms (1.00 video frame)
Interleave, preload duration             : 500 ms

info [Профиль]  [ЛС] 

post 24-Янв-2016 17:45 (спустя 1 час 5 минут) [-]-1[+]

Топик был перенесен из форума Анонсы в форум Новинки 2014-2015 (Rips)

L
 

topsex

Пол: Пол:Муж

Стаж: 6 лет 8 месяцев

Сообщений: 415

СССР
Рейтинг

post 28-Янв-2016 03:37 (спустя 3 дня) [-]3[+]

[Цитировать] 

Не знаю кто такая эта "Черная Манта", но со школьных времен помню, что мочить водой ее не стоит...

_________________
i5@4.0Ghz, 8Gb RAM, Radeon R9 280x 3Gb, SSD, W8.1 x64 \ Xbox 360
info [Профиль]  [ЛС] 

vision32

Стаж: 7 лет 3 месяца

Сообщений: 13

Россия
Рейтинг

post 30-Янв-2016 20:29 (спустя 2 дня 16 часов) [-]0[+]

[Цитировать] 

topsex писал(а):

Не знаю кто такая эта "Черная Манта", но со школьных времен помню, что мочить водой ее не стоит...
)) kolob_107 .
Мультик хоть интересный?
info [Профиль]  [ЛС] 

stiv_sigmal

Стаж: 2 года 11 месяцев

Сообщений: 110

Рейтинг

post 31-Янв-2016 21:16 (спустя 1 день) [-]0[+]

[Цитировать] 

vision32 писал(а):

Мультик хоть интересный?
Детский. В смысле, для младше-школьного.
info [Профиль]  [ЛС] 

cotblevun

Пол: Пол:Муж

Стаж: 5 лет 5 месяцев

Сообщений: 1

Рейтинг

post 14-Фев-2016 18:07 (спустя 13 дней) [-]0[+]

[Цитировать] 

Для 3х лет пойдет?
info [Профиль]  [ЛС] 

post 27-Фев-2016 14:19 (спустя 12 дней) [-]0[+]

Топик был перенесен из форума Отечественные полнометражные мультфильмы в форум Зарубежные полнометражные мультфильмы

LyaKich
 
Показать сообщения:    
Ответить на тему

Текущее время: 10-Дек 05:08

Часовой пояс: GMT + 4



Вы не можете начинать темы
Вы не можете отвечать на сообщения
Вы не можете редактировать свои сообщения
Вы не можете удалять свои сообщения
Вы не можете голосовать в опросах
Вы не можете прикреплять файлы к сообщениям
Вы не можете скачивать файлы