Ошибка

Килл ла Килл / Круши Кромсай / KILL la KILL [TV] [1-24+1 из 24+1] [2013] [приключения, комедия, фэнтези, этти] [BDRip] [720p] [Профессиональный]

Ответить на тему
 
Автор Сообщение

NovA_JKE

Пол: Пол:Жен

Стаж: 6 лет 9 месяцев

Сообщений: 413

Антарктида
Рейтинг

post 18-Янв-2016 20:50 1[+]

[Цитировать] 

pic="http://savepic.ru/8366192.png"


Килл ла Килл | Круши Кромсай | KILL la KILL

Год выпуска: 2013
Страна: Япония
Жанр: приключения, комедия, фэнтези, этти
Тип: TV
Продолжительность: 24 эп. x 25 мин.
Студия:
Режиссер: Имайси Хироюки
Автор оригинала: Накасима Кадзуки
Релиз: студия Kansai
Перевод: студия Kansai
Роли озвучивали: Елизавета Захарьева, Анастасия Филиппова, Александра Матвеева, Артем Николаев, Никита Красильников, Глеб Гаврилов, Иван Чабан, Александр Русаков


Описание: Рюуко Матои путешествует с места на место чтобы найти убийцу своего отца - "женщину с половинкой лезвия ножниц." Путешествие приводит её в академию Покаяние - место, где избранных студентов наделяют сверхчеловеческими способностями при помощи специальной униформы именуемой "Гоку форма." Столкновение Рюуко с главой Покаяние - Сацуки Кириюн, сотрясают всю академию!
Дополнительная информация:


Качество: BDRip
Формат: mkv
Видео: h.264; 10 bit; 1280x720; 23,976 fps; ~6465 kbps
Аудио:
  1. RU: AC3 2.0, 48 kHz, ~192 kbps
Субтитры:
  1. RU: ASS (надписи, фоновые диалоги)

  1. If Only I Had Thorns Like a Thistle...
  2. So Sexy She Might Pass Out.
  3. Junketsu.
  4. Dawn of a Miserable Morning.
  5. Trigger.
  6. Don`t Toy Me on a Whim.
  7. A Loser I Can`t Hate.
  8. I`ll Wipe My Own Tears.
  9. A Once in a Lifetime Chance.
  10. I Want to Know More About You.
  11. I`m Not Your Cute Woman.
  12. Spit Your Sadness Away.
  13. Crazy for You.
  14. Ride Like the Wind.
  15. Don`t Stop Me Now
  16. The Girl Can`t Help It.
  17. Tell Me Why.
  18. Into the Night.
  19. Raindrops Keep Falling on My Head.
  20. Far from the Madding Crowd.
  21. Incomplete.
  22. Tell Me How You Feel.
  23. Imitation Gold.
  24. Past the Infinite Darkness.

  25. Goodbye Again.

http://tapochek.net/viewtopic.php?t=177607
-720p, альтернативная озвучка

http://tapochek.net/viewtopic.php?t=140459
http://tapochek.net/viewtopic.php?t=141942
-BDRip, альтернативная озвучка, отсутствуют субтитры

http://tapochek.net/viewtopic.php?t=155792
-альтернативная озвучка

http://tapochek.net/viewtopic.php?t=148798
-BDRip, альтернативная озвучка

Код:

Общее
Уникальный идентификатор                 : 182131107859074975324952236486767238983 (0x89052CE9D57730E1B8B4BB7A9FDD5F47)
Полное имя                               : O:\NovA_JKE\Аниме\KILL la KILL (КИЛЛ ла КИЛЛ) [BDRip 720p, Студия KANSAI]\[KANSAI] Kill la Kill - 01.mkv
Формат                                   : Matroska
Версия формата                           : Version 2
Размер файла                             : 1,16 Гбайт
Продолжительность                        : 24 м.
Общий поток                              : 6792 Кбит/сек
Дата кодирования                         : UTC 2014-09-07 08:12:01
Программа кодирования                    : mkvmerge v3.4.0 ('Rapunzel') сборка от May 15 2010 09:38:20
Библиотека кодирования                   : libebml v0.8.0 + libmatroska v0.9.0

Видео
Идентификатор                            : 1
Формат                                   : AVC
Формат/Информация                        : Advanced Video Codec
Профиль формата                          : High 10@L4.1
Параметр CABAC формата                   : Да
Параметр ReFrames формата                : 9 кадров
Идентификатор кодека                     : V_MPEG4/ISO/AVC
Продолжительность                        : 24 м.
Битрейт                                  : 6465 Кбит/сек
Ширина                                   : 1280 пикселей
Высота                                   : 720 пикселей
Соотношение сторон                       : 16:9
Режим частоты кадров                     : Постоянный
Частота кадров                           : 23,976 (24000/1001) кадра/сек
Цветовое пространство                    : YUV
Субдискретизация насыщенности            : 4:2:0
Битовая глубина                          : 10 бит
Тип развёртки                            : Прогрессивная
Бит/(Пиксели*Кадры)                      : 0.293
Размер потока                            : 1,11 Гбайт (95%)
Библиотека кодирования                   : x264 core 132 r2309 3b1f1f7
Настройки программы                      : cabac=1 / ref=9 / deblock=1:-2:-2 / analyse=0x3:0x133 / me=umh / subme=9 / psy=1 / psy_rd=0.90:0.00 / mixed_ref=1 / me_range=24 / chroma_me=1 / trellis=2 / 8x8dct=1 / cqm=0 / deadzone=21,11 / fast_pskip=1 / chroma_qp_offset=-2 / threads=12 / lookahead_threads=2 / sliced_threads=0 / nr=0 / decimate=0 / interlaced=0 / bluray_compat=0 / constrained_intra=0 / bframes=8 / b_pyramid=2 / b_adapt=2 / b_bias=0 / direct=1 / weightb=1 / open_gop=0 / weightp=2 / keyint=250 / keyint_min=23 / scenecut=40 / intra_refresh=0 / rc=crf / mbtree=0 / crf=17.8 / qcomp=0.70 / qpmin=9 / qpmax=40 / qpstep=4 / ip_ratio=1.40 / pb_ratio=1.30 / aq=1:0.90
Язык                                     : Japanese
Default                                  : Нет
Forced                                   : Нет

Аудио
Идентификатор                            : 2
Формат                                   : AC-3
Формат/Информация                        : Audio Coding 3
Расширение режима                        : CM (complete main)
Параметр Endianness формата              : Big
Идентификатор кодека                     : A_AC3
Продолжительность                        : 24 м.
Вид битрейта                             : Постоянный
Битрейт                                  : 192 Кбит/сек
Каналы                                   : 2 канала
Расположение каналов                     : Front: L R
Частота                                  : 48,0 КГц
Частота кадров                           : 31,250 кадров/сек (1536 spf)
Метод сжатия                             : С потерями
Размер потока                            : 33,6 Мбайт (3%)
Заголовок                                : KANSAI
Язык                                     : Russian
Default                                  : Да
Forced                                   : Нет

Текст
Идентификатор                            : 3
Формат                                   : ASS
Идентификатор кодека                     : S_TEXT/ASS
Идентификатор кодека/Информация          : Advanced Sub Station Alpha
Метод сжатия                             : Без потерь
Заголовок                                : title
Язык                                     : Russian
Default                                  : Да
Forced                                   : Нет

info [Профиль]  [ЛС] 

Ritsu

Пол: Пол:Муж

Стаж: 5 лет 5 месяцев

Сообщений: 856

Австралия
Рейтинг

post 19-Янв-2016 23:08 (спустя 1 день 2 часа) [-]3[+]

[Цитировать] 

Ну, не знаю..
Видно, что ребята очень старались, прям кричали в микрофон, но такое или в дубляже, или с сабами... :с

_________________
Флудите вместе с Рицу и будет вам счастье! ^__^

"...Зажжем рок в этой дыре!.."
info [Профиль]  [ЛС] 

Yiruma

Пол: Пол:Муж

Стаж: 5 лет 5 месяцев

Сообщений: 3

Россия
Рейтинг

post 01-Мар-2016 21:02 (спустя 1 месяц 10 дней) [-]0[+]

[Цитировать] 

Для кого этот релиз если его скачать нельзя??
info [Профиль]  [ЛС] 

NovA_JKE

Пол: Пол:Жен

Стаж: 6 лет 9 месяцев

Сообщений: 413

Антарктида
Рейтинг

post 01-Мар-2016 21:03 (спустя 1 минута) [-]0[+]

[Цитировать] 

Yiruma писал(а):

Для кого этот релиз если его скачать нельзя??

NovA_JKE писал(а):

Grinder писал(а):

кнопка на скачивание не активна
вроде все проверенные модераторами аниму-торренты, созданные с галкой "частный торрент" теперь не скачиваются :/
в инструкциях по созданию торрент-файла изменений нет, значит скоро починят сей косяк.

info [Профиль]  [ЛС] 
Показать сообщения:    
Ответить на тему

Текущее время: 09-Дек 17:40

Часовой пояс: GMT + 4



Вы не можете начинать темы
Вы не можете отвечать на сообщения
Вы не можете редактировать свои сообщения
Вы не можете удалять свои сообщения
Вы не можете голосовать в опросах
Вы не можете прикреплять файлы к сообщениям
Вы не можете скачивать файлы