Ошибка

Полулюди. Фильм 1: Столкновение /Ajin Part 1: Shoudou [Movie] [2015] [Приключения, Ужасы, Сейнен, Сверхъестественное, Детектив] [BDRip] [1080p] [Субтитры (JAP)]

Ответить на тему
 
Автор Сообщение

anoningen

Стаж: 3 года 6 месяцев

Сообщений: 324

Самоа
Рейтинг

post 16-Янв-2016 15:44 0[+]

[Цитировать] 

Полулюди
Фильм 1: Столкновение
Ajin Part 1: Shoudou | 亜人

Год выпуска:
2015 г.
Тип: Полнометражный фильм
Жанр: Приключения, Ужасы, Сейнен, Сверхъестественное, Детектив
Режиссер: Сэсита Хироюки
Автор оригинала: Сакурай Гамон
Студия:
Продолжительность: 105 мин
Русские субтитры: ASS, внешним файлом
Переводчик: zafhos

Описание: Для старшеклассника Кэя и еще сорока шести других людей, неожиданное бессмертие становится ужасным сюрпризом. К несчастью для Кэя, это не делает его супергероем. В глазах общественности и правительства он — редкий экземпляр, который необходимо выследить и поймать, дабы в дальнейшем передать его учёным для проведения экспериментов... Экспериментов, во время которых ему придется умереть тысячи раз на благо человечества.
Автор рипа: ICDAT
Качество: BDRip
Формат видео: MPEG-4
Видео: AVC, 10 бит, 1920x1080; 23.976 кадра/сек; 2475 Кбит/сек, (16:9)
Аудио 1: TrueHD, 48,0 КГц, переменный ~1597 Кбит/сек, 6 каналов
Аудио 2: FLAC, 48,0 КГц, переменный ~640 Кбит/сек, 2 канала
Общее
Уникальный идентификатор : 205718329140322330141070802347013185134 (0x9AC3E8B589FD302BA9FF887BD5501E6E)
Полное имя : G:\Anime\Movie Part 1\[ICDAT] Ajin The Movie Part 1 Shoudou (BDRip 1920x1080 10bit x264 TureHD FLAC).mkv
Формат : Matroska
Версия формата : Version 4 / Version 2
Размер файла : 3,50 Гбайт
Продолжительность : 1 ч. 44 м.
Режим общего битрейта : Переменный
Общий поток : 4781 Кбит/сек
Дата кодирования : UTC 2016-01-08 07:41:53
Программа кодирования : mkvmerge v8.7.0 ('All of the above') 32bit
Библиотека кодирования : libebml v1.3.3 + libmatroska v1.4.4

Видео
Идентификатор : 1
Формат : AVC
Формат/Информация : Advanced Video Codec
Профиль формата : High 10@L4.1
Параметр CABAC формата : Да
Параметр ReFrames формата : 3 кадра
Идентификатор кодека : V_MPEG4/ISO/AVC
Продолжительность : 1 ч. 44 м.
Вид битрейта : Переменный
Битрейт : 2475 Кбит/сек
Максимальный битрейт : 40,0 Мбит/сек
Ширина : 1920 пикселей
Высота : 1080 пикселей
Соотношение сторон : 16:9
Режим частоты кадров : Постоянный
Частота кадров : 23,976 (24000/1001) кадра/сек
Цветовое пространство : YUV
Субдискретизация насыщенности : 4:2:0
Битовая глубина : 10 бит
Тип развёртки : Прогрессивная
Бит/(Пиксели*Кадры) : 0.050
Размер потока : 1,81 Гбайт (52%)
Заголовок : Video Track
Библиотека кодирования : x264 core 146 r2538 121396c
Настройки программы : cabac=1 / ref=4 / deblock=1:1:1 / analyse=0x3:0x113 / me=umh / subme=9 / psy=1 / psy_rd=0.40:0.00 / mixed_ref=1 / me_range=16 / chroma_me=1 / trellis=1 / 8x8dct=1 / cqm=0 / deadzone=21,11 / fast_pskip=1 / chroma_qp_offset=-2 / threads=12 / lookahead_threads=1 / sliced_threads=0 / slices=4 / nr=0 / decimate=1 / interlaced=0 / bluray_compat=1 / constrained_intra=0 / bframes=3 / b_pyramid=1 / b_adapt=2 / b_bias=0 / direct=3 / weightb=1 / open_gop=1 / weightp=1 / keyint=24 / keyint_min=1 / scenecut=40 / intra_refresh=0 / rc_lookahead=24 / rc=crf / mbtree=1 / crf=18.0 / qcomp=0.60 / qpmin=10 / qpmax=51 / qpstep=4 / vbv_maxrate=40000 / vbv_bufsize=30000 / crf_max=0.0 / nal_hrd=vbr / filler=0 / ip_ratio=1.40 / aq=1:0.60
Язык : Japanese
Default : Да
Forced : Нет
Цветовой диапазон : Limited
Основные цвета : BT.709
Характеристики трансфера : BT.709
Коэффициенты матрицы : BT.709

Аудио #1
Идентификатор : 2
Формат : TrueHD
Идентификатор кодека : A_TRUEHD
Продолжительность : 1 ч. 44 м.
Вид битрейта : Переменный
Битрейт : 1597 Кбит/сек
Максимальный битрейт : 3399 Кбит/сек
Каналы : 6 каналов
Расположение каналов : Front: L C R, Side: L R, LFE
Частота : 48,0 КГц
Частота кадров : 1200,000 кадров/сек (40 spf)
Метод сжатия : Без потерь
Размер потока : 1,17 Гбайт (33%)
Заголовок : 5.1ch Audio Track
Язык : Japanese
Default : Да
Forced : Нет

Аудио #2
Идентификатор : 3
Формат : FLAC
Формат/Информация : Free Lossless Audio Codec
Идентификатор кодека : A_FLAC
Продолжительность : 1 ч. 44 м.
Вид битрейта : Переменный
Битрейт : 640 Кбит/сек
Каналы : 2 канала
Расположение каналов : Front: L R
Частота : 48,0 КГц
Частота кадров : 41,667 кадра/сек (1152 spf)
Битовая глубина : 16 бит
Размер потока : 480 Мбайт (13%)
Заголовок : 2.0ch Audio Track
Библиотека кодирования : libFLAC 1.3.1 (UTC 2014-11-25)
Язык : Japanese
Default : Нет
Forced : Нет

Меню
00:00:00.000 : ja:00:00:00.000
00:04:28.685 : ja:00:04:28.685
00:11:47.456 : ja:00:11:47.456
00:21:42.592 : ja:00:21:42.592
00:32:39.332 : ja:00:32:39.332
00:40:45.150 : ja:00:40:45.150
00:51:49.606 : ja:00:51:49.606
00:59:03.456 : ja:00:59:03.456
01:07:01.016 : ja:01:07:01.016
01:14:27.128 : ja:01:14:27.128
01:23:27.418 : ja:01:23:27.418
01:40:22.140 : ja:01:40:22.140
info [Профиль]  [ЛС] 

sol921

Стаж: 3 года 9 месяцев

Сообщений: 20

Рейтинг

post 17-Янв-2016 00:23 (спустя 8 часов) [-]0[+]

[Цитировать] 

спасибо за субтитры) надеюсь они хотя бы читаемые)
info [Профиль]  [ЛС] 

Lady_Avada

Стаж: 5 лет 3 месяца

Сообщений: 162

Рейтинг

post 17-Янв-2016 04:16 (спустя 3 часа) [-]0[+]

[Цитировать] 

Битрейт как у 720p, неужели такая картинка или энкодер перестарался?

_________________
anime_72 anime_19
info [Профиль]  [ЛС] 

anoningen

Стаж: 3 года 6 месяцев

Сообщений: 324

Самоа
Рейтинг

post 17-Янв-2016 20:40 (спустя 16 часов) [-]0[+]

[Цитировать] 

Lady_Avada
Пока сам только пролистал чтобы скрины сделать, но качество намного лучше чем у сериала в 720p.
info [Профиль]  [ЛС] 

Korleone2

Пол: Пол:Муж

Стаж: 7 лет 3 месяца

Сообщений: 1932

Россия
Рейтинг

post 17-Янв-2016 22:14 (спустя 1 час 33 минуты) [-]0[+]

[Цитировать] 

чтот нифига не понятно:

1. обе дорожки японские?
2. порядок просмотра
info [Профиль]  [ЛС] 

anoningen

Стаж: 3 года 6 месяцев

Сообщений: 324

Самоа
Рейтинг

post 18-Янв-2016 02:07 (спустя 3 часа) [-]0[+]

[Цитировать] 

Korleone2
Да, обе японские. По сюжету фильм и первые 6 серий сериала одно и то же.
info [Профиль]  [ЛС] 

Tahakaro

Пол: Пол:Муж

Стаж: 7 лет 5 месяцев

Сообщений: 139

Россия
Рейтинг

post 18-Янв-2016 17:59 (спустя 15 часов) [-]0[+]

[Цитировать] 

ОГО!!! 6 каналов в БД от японцев в аниме. Неужели я это увидел....

_________________
info [Профиль]  [ЛС] 
Показать сообщения:    
Ответить на тему

Текущее время: 05-Дек 04:33

Часовой пояс: GMT + 4



Вы не можете начинать темы
Вы не можете отвечать на сообщения
Вы не можете редактировать свои сообщения
Вы не можете удалять свои сообщения
Вы не можете голосовать в опросах
Вы не можете прикреплять файлы к сообщениям
Вы не можете скачивать файлы