Ошибка

Лисенок Вук / Vuk: The Little Fox (Аттила Даргаи) [1981 г., анимация, приключения, семейный, DVDRip]

Ответить на тему
 
Автор Сообщение

CrazySmall

Пол: Пол:Муж

Стаж: 6 лет 9 месяцев

Сообщений: 281

СССР
Рейтинг

post 10-Янв-2016 11:46 5[+]

[Цитировать] 

Лисенок Вук / Vuk: The Little Fox

Год выпуска: 1981
Страна: Венгрия
Жанр: анимация, приключения, семейный
Продолжительность: 01:13:15
Перевод: Профессиональный (дублированный) [Лицензия]
Язык субтитров: нет

Режиссер:
  • Аттила Даргаи


Описание: Этот мультипликационный фильм, созданный по мотивам одноименной сказки И. Фекете, рассказывает о приключениях маленького озорного лисенка Вука. Много пережил этот хвастунишка, прежде чем превратился в сильного умного лиса, сумевшего перехитрить даже известного охотника Гладкокожего.


Качество: DVDRip
Формат: MKV
Видео кодек: AVC
Аудио кодек: AC3
Видео: 704х576; 3619kbps; 25fps
Аудио #1: mono; 192kbps; 48 khz [Дубляж | Главная редакция кинопрограмм ЦТ | 1984]
Аудио #2: mono; 192kbps; 48 khz [Дубляж | Киностудия им. Горького | 1982]
Аудио #3: mono; 192kbps; 48 khz [Венгерский]
Аудио #4: mono; 192kbps; 48 khz [Русский]
Уникальный идентификатор : 184333696117352156466940760079902541826 (0x8AAD60E61C2304169D69AEDCB2FD8802)
Формат : Matroska
Версия формата : Version 4 / Version 2
Размер файла : 2,39 Гбайт
Продолжительность : 1 ч. 13 м.
Общий поток : 4672 Кбит/сек
Название фильма : Vuk.1981.DVDRip
Дата кодирования : UTC 2014-07-21 15:02:26
Программа кодирования : mkvmerge v7.0.0 ('Where We Going') 64bit built on Jun 9 2014 15:16:27
Библиотека кодирования : libebml v1.3.0 + libmatroska v1.4.1

Видео
Идентификатор : 1
Формат : AVC
Формат/Информация : Advanced Video Codec
Профиль формата : High@L4
Параметр CABAC формата : Да
Параметр ReFrames формата : 16 кадров
Идентификатор кодека : V_MPEG4/ISO/AVC
Продолжительность : 1 ч. 13 м.
Битрейт : 3619 Кбит/сек
Ширина : 704 пикселя
Высота : 576 пикселей
Соотношение сторон : 4:3
Режим частоты кадров : Постоянный
Частота кадров : 25,000 кадров/сек
Стандарт вещания : PAL
Цветовое пространство : YUV
Субдискретизация насыщенности : 4:2:0
Битовая глубина : 8 бит
Тип развёртки : Прогрессивная
Бит/(Пиксели*Кадры) : 0.357
Размер потока : 1,85 Гбайт (77%)
Библиотека кодирования : x264 core 142 r2431kMod ac76440
Настройки программы : cabac=1 / ref=16 / deblock=1:-2:-1 / analyse=0x3:0x133 / me=umh / subme=11 / psy=1 / fade_compensate=0.00 / psy_rd=1.00:0.00 / mixed_ref=1 / me_range=48 / chroma_me=1 / trellis=2 / 8x8dct=1 / cqm=0 / deadzone=21,11 / fast_pskip=0 / chroma_qp_offset=-2 / threads=12 / lookahead_threads=3 / sliced_threads=0 / nr=0 / decimate=1 / interlaced=0 / bluray_compat=0 / constrained_intra=0 / fgo=0 / bframes=14 / b_pyramid=2 / b_adapt=2 / b_bias=0 / direct=3 / weightb=1 / open_gop=0 / weightp=2 / keyint=250 / keyint_min=25 / scenecut=40 / intra_refresh=0 / rc=crf / mbtree=0 / crf=19.5200 / qcomp=0.60 / qpmin=0 / qpmax=69 / qpstep=4 / ip_ratio=1.40 / pb_ratio=1.30 / aq=3:0.90
Язык : Hungarian
Default : Да
Forced : Нет
Цветовой диапазон : Limited
Основные цвета : BT.601 PAL
Характеристики трансфера : BT.470 System B, BT.470 System G
Коэффициенты матрицы : BT.601

Аудио #1
Идентификатор : 2
Формат : AC-3
Формат/Информация : Audio Coding 3
Расширение режима : CM (complete main)
Параметр Endianness формата : Big
Идентификатор кодека : A_AC3
Продолжительность : 1 ч. 13 м.
Вид битрейта : Постоянный
Битрейт : 192 Кбит/сек
Каналы : 1 канал
Расположение каналов : Front: C
Частота : 48,0 КГц
Частота кадров : 31,250 кадров/сек (1536 spf)
Метод сжатия : С потерями
Размер потока : 101 Мбайт (4%)
Заголовок : Дубляж | Главная редакция кинопрограмм ЦТ | 1984
Язык : Russian
Default : Да
Forced : Нет

Аудио #2
Идентификатор : 3
Формат : AC-3
Формат/Информация : Audio Coding 3
Расширение режима : CM (complete main)
Параметр Endianness формата : Big
Идентификатор кодека : A_AC3
Продолжительность : 1 ч. 13 м.
Вид битрейта : Постоянный
Битрейт : 192 Кбит/сек
Каналы : 1 канал
Расположение каналов : Front: C
Частота : 48,0 КГц
Частота кадров : 31,250 кадров/сек (1536 spf)
Метод сжатия : С потерями
Размер потока : 101 Мбайт (4%)
Заголовок : Дубляж | Киностудия им. Горького | 1982
Язык : Russian
Default : Нет
Forced : Нет

Аудио #3
Идентификатор : 4
Формат : AC-3
Формат/Информация : Audio Coding 3
Расширение режима : CM (complete main)
Параметр Endianness формата : Big
Идентификатор кодека : A_AC3
Продолжительность : 1 ч. 13 м.
Вид битрейта : Постоянный
Битрейт : 384 Кбит/сек
Каналы : 6 каналов
Расположение каналов : Front: L C R, Side: L R, LFE
Частота : 48,0 КГц
Частота кадров : 31,250 кадров/сек (1536 spf)
Метод сжатия : С потерями
Размер потока : 201 Мбайт (8%)
Язык : Hungarian
Default : Нет
Forced : Нет

Аудио #4
Идентификатор : 5
Формат : AC-3
Формат/Информация : Audio Coding 3
Расширение режима : CM (complete main)
Параметр Endianness формата : Big
Идентификатор кодека : A_AC3
Продолжительность : 1 ч. 13 м.
Вид битрейта : Постоянный
Битрейт : 192 Кбит/сек
Каналы : 2 канала
Расположение каналов : Front: L R
Частота : 48,0 КГц
Частота кадров : 31,250 кадров/сек (1536 spf)
Метод сжатия : С потерями
Размер потока : 101 Мбайт (4%)
Язык : English
Default : Нет
Forced : Нет

Меню
00:00:00.000 : :00:00:00
00:05:04.200 : :00:05:04
00:14:44.000 : :00:14:44
00:23:04.240 : :00:23:04
00:32:58.080 : :00:32:58
00:36:56.240 : :00:36:56
00:48:25.760 : :00:48:25
00:52:06.240 : :00:52:06
00:58:56.520 : :00:58:56
01:10:57.240 : :01:10:57
info [Профиль]  [ЛС] 

Disney

Пол: Пол:Муж

Стаж: 5 лет

Сообщений: 97

Россия
Рейтинг

post 10-Янв-2016 15:04 (спустя 3 часа) [-]1[+]

[Цитировать] 

Отличный мультик. Самый любимый мульт моего детства. После Домовенка Кузи.
info [Профиль]  [ЛС] 

CrazySmall

Пол: Пол:Муж

Стаж: 6 лет 9 месяцев

Сообщений: 281

СССР
Рейтинг

post 10-Янв-2016 15:08 (спустя 3 минуты) [-]0[+]

[Цитировать] 

Сам с удовольствием пересмотрел )

_________________
Сто процентную гарантию дает только контрольный выстрел в голову.
info [Профиль]  [ЛС] 

DAN4IK

Пол: Пол:Муж

Стаж: 6 лет 2 месяца

Сообщений: 52

Россия
Рейтинг

post 10-Янв-2016 16:28 (спустя 1 час 20 минут) [-]4[+]

[Цитировать] 

ох уж эти пьяные гуси ag

_________________
info [Профиль]  [ЛС] 

Nichls

Пол: Пол:Муж

Стаж: 7 лет 3 месяца

Сообщений: 119

Россия
Рейтинг

post 14-Янв-2016 13:28 (спустя 3 дня) [-]1[+]

[Цитировать] 

DAN4IK писал(а):

ох уж эти пьяные гуси ag
А коврик возле кровати?
Собакенов пугаю этим регулярно.

За раздачу спасибо. Пересмотрю с семьей на днях.

_________________
Бог не по силам креста не дает.
info [Профиль]  [ЛС] 
Показать сообщения:    
Ответить на тему

Текущее время: 03-Дек 23:43

Часовой пояс: GMT + 4



Вы не можете начинать темы
Вы не можете отвечать на сообщения
Вы не можете редактировать свои сообщения
Вы не можете удалять свои сообщения
Вы не можете голосовать в опросах
Вы не можете прикреплять файлы к сообщениям
Вы не можете скачивать файлы