Ошибка
Загрузка...

Властелины времени / Masters of Time (Rene Laloux) [1982 г., анимация/фантастика, DVDRip]

Ответить на тему
 
Автор Сообщение

CrazySmall

Пол: Пол:Муж

Стаж: 7 лет 5 месяцев

Сообщений: 363

СССР
Рейтинг

post 09-Янв-2016 16:30 4[+]

[Цитировать] 

Властелины времени / Masters of Time

Год выпуска: 1982
Страна: Франция
Жанр: анимация/фантастика
Продолжительность: 01:15:09
Перевод: Профессиональный (дублированный) [Лицензия]
Язык субтитров: нет

Режиссер:
  • Rene Laloux


Описание: Пьель, 7-летний мальчик, попал в пустыню планеты Пердиде, уцелев после атаки гигантских ос. На вызов о помощи откликнулся друг его отца Джаффар. Он держит контакт с ребенком и спешит через пространство к Пердиде…
Джаффар еще не знает, что ему придется столкнуться с Властелинами Времени и спасать нужно будет не только ребенка, но и его родную планету…


Качество: DVDRip
Формат: MKV
Видео кодек: Matroska v.2
Аудио кодек: MPEG Audio
Видео: 672х400; 2229kbps; 25fps
Аудио #1: 2ch; 128 kbps; 44,1 khz [дублированный]
Аудио #2: mono; 112 kbps; 44,1 khz [английский]
Аудио #3: mono; 112 kbps; 44,1 khz [французский]
Аудио #4: mono; 112 kbps; 44,1 khz [немецкий]
- После выхода фильма в том же году был выпущен 38-страничный комикс с одноименным названием.
- Этот полнометражный мультфильм был снят по роману «Сирота с Пердида» (L`orphelin de Perdide, 1958) французского писателя-фантаста Стефана Вуля (Stefan Wul).
- Для проката на территории СССР фильм был куплен в 1986 году, четыре года спустя после французской премьеры.
Уникальный идентификатор : 247139907097621431287966710309427576668 (0xB9ED6A2D44ACD8F39CC45CC43F9F7F5C)
Формат : Matroska
Версия формата : Version 2
Размер файла : 1,44 Гбайт
Продолжительность : 1 ч. 15 м.
Общий поток : 2748 Кбит/сек
Дата кодирования : UTC 2009-06-13 15:32:52
Программа кодирования : mkvmerge v2.9.5
Библиотека кодирования : libebml v0.7.7 + libmatroska v0.8.1

Видео
Идентификатор : 1
Формат : MPEG-4 Visual
Параметр BVOP формата : Да
Параметр QPel формата : Нет
Параметр GMC формата : Без точки перехода
Параметр матрицы формата : Default (H.263)
Идентификатор кодека : V_MS/VFW/FOURCC / XVID
Идентификатор кодека/Подсказка : XviD
Продолжительность : 1 ч. 15 м.
Битрейт : 2229 Кбит/сек
Ширина : 672 пикселя
Высота : 400 пикселей
Соотношение сторон : 5:3
Режим частоты кадров : Постоянный
Частота кадров : 25,000 кадров/сек
Цветовое пространство : YUV
Субдискретизация насыщенности : 4:2:0
Битовая глубина : 8 бит
Тип развёртки : Прогрессивная
Метод сжатия : С потерями
Бит/(Пиксели*Кадры) : 0.332
Размер потока : 1,17 Гбайт (81%)
Default : Да
Forced : Нет128

Аудио #1
Идентификатор : 2
Формат : MPEG Audio
Версия формата : Version 1
Профиль формата : Layer 3
Режим : Joint stereo
Расширение режима : MS Stereo
Идентификатор кодека : A_MPEG/L3
Идентификатор кодека/Подсказка : MP3
Продолжительность : 1 ч. 15 м.
Вид битрейта : Постоянный
Битрейт : 128 Кбит/сек
Каналы : 2 канала
Частота : 44,1 КГц
Метод сжатия : С потерями
Размер потока : 68,8 Мбайт (5%)
Заголовок : 1
Язык : Russian
Default : Да
Forced : Нет

Аудио #2
Идентификатор : 3
Формат : MPEG Audio
Версия формата : Version 1
Профиль формата : Layer 3
Идентификатор кодека : A_MPEG/L3
Идентификатор кодека/Подсказка : MP3
Продолжительность : 1 ч. 15 м.
Вид битрейта : Постоянный
Битрейт : 112 Кбит/сек
Каналы : 1 канал
Частота : 44,1 КГц
Метод сжатия : С потерями
Размер потока : 60,2 Мбайт (4%)
Заголовок : 2
Язык : English
Default : Нет
Forced : Нет

Аудио #3
Идентификатор : 4
Формат : MPEG Audio
Версия формата : Version 1
Профиль формата : Layer 3
Идентификатор кодека : A_MPEG/L3
Идентификатор кодека/Подсказка : MP3
Продолжительность : 1 ч. 15 м.
Вид битрейта : Постоянный
Битрейт : 112 Кбит/сек
Каналы : 1 канал
Частота : 44,1 КГц
Метод сжатия : С потерями
Размер потока : 60,2 Мбайт (4%)
Заголовок : 3
Язык : French
Default : Нет
Forced : Нет

Аудио #4
Идентификатор : 5
Формат : MPEG Audio
Версия формата : Version 1
Профиль формата : Layer 3
Идентификатор кодека : A_MPEG/L3
Идентификатор кодека/Подсказка : MP3
Продолжительность : 1 ч. 15 м.
Вид битрейта : Постоянный
Битрейт : 112 Кбит/сек
Каналы : 1 канал
Частота : 44,1 КГц
Метод сжатия : С потерями
Размер потока : 60,2 Мбайт (4%)
Заголовок : 4
Язык : German
Default : Нет
Forced : Нет
info [Профиль]  [ЛС] 

topsex

Пол: Пол:Муж

Стаж: 7 лет 4 месяца

Сообщений: 513

СССР
Рейтинг

post 10-Янв-2016 02:52 (спустя 10 часов) [-]-5[+]

[Цитировать] 

"попал в пустыню планеты Пердиде" вот это он попал...

_________________
i5@4.0Ghz, 8Gb RAM, Radeon R9 280x 3Gb, SSD, W8.1 x64 \ Xbox 360
info [Профиль]  [ЛС] 

nokk

Пол: Пол:Муж

Стаж: 5 лет 7 месяцев

Сообщений: 14

Россия
Рейтинг

post 10-Янв-2016 05:22 (спустя 2 часа 30 минут) [-]1[+]

[Цитировать] 

Хороший мульт.
info [Профиль]  [ЛС] 
Показать сообщения:    
Ответить на тему

Текущее время: 18-Авг 22:22

Часовой пояс: GMT + 4



Вы не можете начинать темы
Вы не можете отвечать на сообщения
Вы не можете редактировать свои сообщения
Вы не можете удалять свои сообщения
Вы не можете голосовать в опросах
Вы не можете прикреплять файлы к сообщениям
Вы не можете скачивать файлы