Ошибка

Монстры на каникулах 2 / Hotel Transylvania 2 (Генндий Тартаковский) [2015, мультфильм, фэнтези, комедия, семейный, BDRip 720p] Dub + Ukr + Eng + Sub от R.G. TNClub

Ответить на тему
 
Автор Сообщение

R.G. TNClub

Стаж: 2 года 3 месяца

Сообщений: 515

Рейтинг

post 28-Дек-2015 22:45 1[+]

[Цитировать] 

Монстры на каникулах 2 / Hotel Transylvania 2
«Drac's pack is back»

Страна: США , Великобритания
Жанр: мультфильм, фэнтези, комедия, семейный
Год выпуска: 2015
Продолжительность: 01:29:45
Перевод:
  • Профессиональный (дублированный) [Лицензия iTunes] - русский
  • Профессиональный (дублированный) [Лицензия iTunes] - украинский
Субтитры: русские, украинские, английские
Оригинальная дорожка: английский
Главы: есть

Режиссер: Генндий Тартаковский
В ролях: Адам Сэндлер / Adam Sandler (Dracula, озвучка), Энди Сэмберг / Andy Samberg (Jonathan, озвучка), Селена Гомес / Selena Gomez (Mavis, озвучка), Кевин Джеймс / Kevin James (Frankenstein, озвучка), Стив Бушеми / Steve Buscemi (Wayne, озвучка), Дэвид Спейд / David Spade (Griffin, озвучка), Кигэн-Майкл Ки / Keegan-Michael Key (Murray, озвучка), Эшер Блинкофф / Asher Blinkoff (Dennis, озвучка)


Описание: Граф Дракула выдает свою очаровательную дочь замуж за парня из мира людей, и у молодой «смешанной» пары рождается сын. Станет ли этот ребенок человеком или вампиром?

Качество видео: BDRip 720p
Рип от L
Формат видео: MKV
Видео: MPEG-4 AVC Video ~ 3.4Mbps 1280 x 690 / 23,976 fps / 1.82:1 / High Profile 4.1
Аудио:
  • Russian: 48 kHz, AC3 Dolby Digital, 3/2 (L,C,R,l,r) + LFE ch, ~384 kbps
  • Ukrainian: 48 kHz, AC3 Dolby Digital, 2.0 (L,R), ~ 192 Кбит/с
  • English: 48 kHz, DTS, 3/2 (L,C,R,l,r) + LFE ch, ~1509.00 kbps avg
Формат субтитров: softsub (SRT)

Раздача от &
Hotel Transylvania 2 2015 1080p Blu-ray AVC DTS-HD MA 5.1
Уникальный идентификатор : 214039948717111161216660279463147754334 (0xA106983B2CCEA3EFABE91CAC3B68535E)
Полное имя : D:\L#TNClub\Hotel.Transylvania.2.2015.BluRay.720p.DD5.1.x264-TNClub.mkv
Формат : Matroska
Версия формата : Version 4 / Version 2
Размер файла : 3,50 Гбайт
Продолжительность : 1 ч. 29 м.
Общий поток : 5619 Кбит/сек
Название фильма : Hotel.Transylvania.2.2015.BluRay.720p.DD5.1.x264-TNClub
Дата кодирования : UTC 2015-12-28 20:12:17
Программа кодирования : mkvmerge v8.3.0 ('Over the Horizon') 32bit
Библиотека кодирования : libebml v1.3.1 + libmatroska v1.4.2
Attachements : 6aca7d845ab4cd7fad443158c026fbc0.png / poster.jpg

Видео
Идентификатор : 1
Формат : AVC
Формат/Информация : Advanced Video Codec
Профиль формата : High@L4.1
Параметр CABAC формата : Да
Параметр ReFrames формата : 9 кадров
Идентификатор кодека : V_MPEG4/ISO/AVC
Продолжительность : 1 ч. 29 м.
Битрейт : 3530 Кбит/сек
Ширина : 1280 пикселей
Высота : 690 пикселей
Соотношение сторон : 1,85:1
Режим частоты кадров : Постоянный
Частота кадров : 23,976 (24000/1001) кадра/сек
Цветовое пространство : YUV
Субдискретизация насыщенности : 4:2:0
Битовая глубина : 8 бит
Тип развёртки : Прогрессивная
Бит/(Пиксели*Кадры) : 0.167
Размер потока : 2,20 Гбайт (63%)
Библиотека кодирования : x264 core 146 r2538 121396c
Настройки программы : cabac=1 / ref=9 / deblock=1:-1:-1 / analyse=0x3:0x133 / me=umh / subme=11 / psy=1 / psy_rd=1.05:0.10 / mixed_ref=1 / me_range=32 / chroma_me=1 / trellis=2 / 8x8dct=1 / cqm=0 / deadzone=21,11 / fast_pskip=0 / chroma_qp_offset=-4 / threads=6 / lookahead_threads=1 / sliced_threads=0 / nr=0 / decimate=1 / interlaced=0 / bluray_compat=0 / constrained_intra=0 / bframes=8 / b_pyramid=2 / b_adapt=2 / b_bias=0 / direct=1 / weightb=1 / open_gop=0 / weightp=2 / keyint=230 / keyint_min=21 / scenecut=40 / intra_refresh=0 / rc_lookahead=60 / rc=crf / mbtree=0 / crf=17.0 / qcomp=0.70 / qpmin=0 / qpmax=69 / qpstep=4 / vbv_maxrate=30000 / vbv_bufsize=40000 / crf_max=0.0 / nal_hrd=none / filler=0 / ip_ratio=1.35 / pb_ratio=1.25 / aq=2:0.90
Язык : English
Default : Да
Forced : Нет

Аудио #1
Идентификатор : 2
Формат : AC-3
Формат/Информация : Audio Coding 3
Расширение режима : CM (complete main)
Параметр Endianness формата : Big
Идентификатор кодека : A_AC3
Продолжительность : 1 ч. 29 м.
Вид битрейта : Постоянный
Битрейт : 384 Кбит/сек
Каналы : 6 каналов
Расположение каналов : Front: L C R, Side: L R, LFE
Частота : 48,0 КГц
Частота кадров : 31,250 кадров/сек (1536 spf)
Метод сжатия : С потерями
Размер потока : 245 Мбайт (7%)
Заголовок : DD5.1@384
Язык : Russian
Default : Да
Forced : Нет

Аудио #2
Идентификатор : 3
Формат : AC-3
Формат/Информация : Audio Coding 3
Расширение режима : CM (complete main)
Параметр Endianness формата : Big
Идентификатор кодека : A_AC3
Продолжительность : 1 ч. 29 м.
Вид битрейта : Постоянный
Битрейт : 192 Кбит/сек
Каналы : 2 канала
Расположение каналов : Front: L R
Частота : 48,0 КГц
Частота кадров : 31,250 кадров/сек (1536 spf)
Метод сжатия : С потерями
Размер потока : 123 Мбайт (3%)
Заголовок : DD2.0@192
Язык : Ukrainian
Default : Нет
Forced : Нет

Аудио #3
Идентификатор : 4
Формат : DTS
Формат/Информация : Digital Theater Systems
Режим : 16
Параметр Endianness формата : Big
Идентификатор кодека : A_DTS
Продолжительность : 1 ч. 29 м.
Вид битрейта : Постоянный
Битрейт : 1509 Кбит/сек
Каналы : 6 каналов
Расположение каналов : Front: L C R, Side: L R, LFE
Частота : 48,0 КГц
Частота кадров : 93,750 кадра/сек (512 spf)
Битовая глубина : 16 бит
Метод сжатия : С потерями
Размер потока : 964 Мбайт (27%)
Заголовок : DTS5.1@640
Язык : English
Default : Нет
Forced : Нет

Текст #1
Идентификатор : 5
Формат : UTF-8
Идентификатор кодека : S_TEXT/UTF8
Идентификатор кодека/Информация : UTF-8 Plain Text
Продолжительность : 1 ч. 19 м.
Битрейт : 117 бит/сек
Count of elements : 1107
Размер потока : 68,6 Кбайт (0%)
Язык : Russian
Default : Да
Forced : Нет

Текст #2
Идентификатор : 6
Формат : UTF-8
Идентификатор кодека : S_TEXT/UTF8
Идентификатор кодека/Информация : UTF-8 Plain Text
Продолжительность : 1 ч. 18 м.
Битрейт : 119 бит/сек
Count of elements : 1106
Размер потока : 69,0 Кбайт (0%)
Язык : Ukrainian
Default : Нет
Forced : Нет

Текст #3
Идентификатор : 7
Формат : UTF-8
Идентификатор кодека : S_TEXT/UTF8
Идентификатор кодека/Информация : UTF-8 Plain Text
Продолжительность : 1 ч. 18 м.
Битрейт : 69 бит/сек
Count of elements : 977
Размер потока : 40,0 Кбайт (0%)
Язык : English
Default : Нет
Forced : Нет

Меню
00:00:00.000 : en:00:00:00.000
00:05:46.471 : en:00:05:46.471
00:09:17.640 : en:00:09:17.640
00:13:09.706 : en:00:13:09.706
00:19:29.126 : en:00:19:29.126
00:22:42.570 : en:00:22:42.570
00:30:05.303 : en:00:30:05.303
00:36:12.712 : en:00:36:12.712
00:40:00.982 : en:00:40:00.982
00:45:54.377 : en:00:45:54.377
00:51:22.454 : en:00:51:22.454
00:56:54.911 : en:00:56:54.911
01:04:01.921 : en:01:04:01.921
01:08:32.817 : en:01:08:32.817
01:13:29.405 : en:01:13:29.405
01:18:35.878 : en:01:18:35.878
Пожалуйста, оставайтесь на раздаче как можно дольше!
Релиз специально для Tapochek.net
Все раздачи R.G.TNClub




Оформление by:GhostRidik
info [Профиль]  [ЛС] 

post 29-Дек-2015 00:24 (спустя 1 час 39 минут) [-]0[+]

Топик был перенесен из форума Оформление раздач (R.G. TNClub) в форум Новинки 2014-2015 (Web-DL, DVD, HD DVD, Blu-ray, HD Rips)

L
 

Virtualllll

Пол: Пол:Муж

Стаж: 5 лет 5 месяцев

Сообщений: 453

Рейтинг

post 29-Дек-2015 22:49 (спустя 1 день) [-]0[+]

[Цитировать] 

прикольный мульт, мне понравился. неплохое продолжение

_________________
info [Профиль]  [ЛС] 

hyligan1001

Пол: Пол:Муж

Стаж: 5 лет

Сообщений: 11

Россия
Рейтинг

post 20-Янв-2016 23:09 (спустя 22 дня) [-]0[+]

[Цитировать] 

почему звук не работает
info [Профиль]  [ЛС] 

L

Пол: Пол:Муж

Стаж: 6 лет 7 месяцев

Сообщений: 10754

Украина
Рейтинг

post 20-Янв-2016 23:15 (спустя 6 минут) [-]0[+]

[Цитировать] 

Может включить надо?

_________________
info [Профиль]  [ЛС] 

post 06-Фев-2016 00:55 (спустя 16 дней) [-]0[+]

Топик был перенесен из форума Новинки 2014-2015 (Web-DL, DVD, HD DVD, Blu-ray, HD Rips) в форум Мультфильмы от R.G. TNСlub

LyaKich
 
Показать сообщения:    
Ответить на тему

Текущее время: 02-Дек 22:17

Часовой пояс: GMT + 4



Вы не можете начинать темы
Вы не можете отвечать на сообщения
Вы не можете редактировать свои сообщения
Вы не можете удалять свои сообщения
Вы не можете голосовать в опросах
Вы не можете прикреплять файлы к сообщениям
Вы не можете скачивать файлы