Ошибка

Гинтама / Gintama° (TV-4) [1-51 + SP из 51 + SP] [2015] [Комедия] [HDTV720p] (Любительский)

Ответить на тему
 
Автор Сообщение

Chel90RUS

Пол: Пол:Муж

Стаж: 5 лет 5 месяцев

Сообщений: 413

Россия
Рейтинг

post 27-Дек-2015 15:31 5[+]

[Цитировать] 

pic="http://i74.fastpic.ru/big/2016/0219/62/2bb6c38b4bbff4f7c5fa3baa00422962.jpg"
Гинтама ТВ-4
Gintama° / 銀魂゜

Год выпуска: 2015
Жанр: комедия
Страна: Япония
Тип: HDTV
Продолжительность: 51 серия ~ 25 мин
Дата выпуска: c 08.04.2015 по 30.03.2016
Режиссер: Мияваки Чизуру
Автор оригинала / Сценарист: Сорати Хидэаки
Озвучено: JAM
Перевод: Miss Sherlockian
Студия: Bandai Namco Pictures
Аудио: AAC 48000Hz stereo 192kbps [A: English [eng] (aac lc, 48000 Hz, stereo, 192 kb/s)]
Видео: MPEG4 Video (H264) 1280x720 59.94fps 2229kbps [V: Mainconcept Video Media Handler [eng] (h264 high L4.1, yuv420p, 1280x720, 2229 kb/s)]

General
Complete name : \[AniDub]_Gintama_TV-4_[01]_[720p_x264_Aac]_[JAM].mp4
Format : MPEG-4
Format profile : Base Media
Codec ID : isom
File size : 425 MiB
Duration : 24mn 27s
Overall bit rate mode : Variable
Overall bit rate : 2 428 Kbps
Encoded date : UTC 2015-04-07 21:48:30
Tagged date : UTC 2015-04-07 21:48:30
Writing application : Yamb 2.1.0.0

Video
ID : 1
Format : AVC
Format/Info : Advanced Video Codec
Format profile : High@L4.1
Format settings, CABAC : Yes
Format settings, ReFrames : 3 frames
Codec ID : avc1
Codec ID/Info : Advanced Video Coding
Duration : 24mn 27s
Source duration : 24mn 27s
Bit rate : 2 230 Kbps
Maximum bit rate : 8 012 Kbps
Width : 1 280 pixels
Height : 720 pixels
Display aspect ratio : 16:9
Frame rate mode : Variable
Frame rate : 59.940 fps
Minimum frame rate : 59.940 fps
Maximum frame rate : 60.000 fps
Standard : NTSC
Color space : YUV
Chroma subsampling : 4:2:0
Bit depth : 8 bits
Scan type : Progressive
Bits/(Pixel*Frame) : 0.040
Stream size : 390 MiB (92%)
Source stream size : 390 MiB (92%)
Language : English
Encoded date : UTC 2015-04-08 17:17:23
Tagged date : UTC 2015-04-07 21:48:33
Color range : Limited
Color primaries : BT.709
Transfer characteristics : BT.709
Matrix coefficients : BT.709

Audio
ID : 2
Format : AAC
Format/Info : Advanced Audio Codec
Format profile : LC
Codec ID : 40
Duration : 24mn 27s
Bit rate mode : Variable
Bit rate : 192 Kbps
Maximum bit rate : 201 Kbps
Channel(s) : 2 channels
Channel positions : Front: L R
Sampling rate : 48.0 KHz
Compression mode : Lossy
Stream size : 33.6 MiB (8%)
Language : English
Encoded date : UTC 2015-04-07 21:48:32
Tagged date : UTC 2015-04-07 21:48:33
Описание:Продолжение старой доброй чернухи.
Добавлена 51 серия 11/04/2016
info [Профиль]  [ЛС] 

Chel90RUS

Пол: Пол:Муж

Стаж: 5 лет 5 месяцев

Сообщений: 413

Россия
Рейтинг

post 09-Янв-2016 23:26 (спустя 13 дней) [-]0[+]

[Цитировать] 

Добавлена 39 серия 9/01/2016

_________________
info [Профиль]  [ЛС] 

Chel90RUS

Пол: Пол:Муж

Стаж: 5 лет 5 месяцев

Сообщений: 413

Россия
Рейтинг

post 18-Янв-2016 23:17 (спустя 8 дней) [-]0[+]

[Цитировать] 

Добавлена 40 серия 18/01/2016

_________________
info [Профиль]  [ЛС] 

Chel90RUS

Пол: Пол:Муж

Стаж: 5 лет 5 месяцев

Сообщений: 413

Россия
Рейтинг

post 21-Янв-2016 11:36 (спустя 2 дня 12 часов) [-]0[+]

[Цитировать] 

Добавлена 40 серия 18/01/2016
Фикс 21/01/2016

_________________
info [Профиль]  [ЛС] 

Chel90RUS

Пол: Пол:Муж

Стаж: 5 лет 5 месяцев

Сообщений: 413

Россия
Рейтинг

post 25-Янв-2016 23:09 (спустя 4 дня) [-]0[+]

[Цитировать] 

Добавлена 41 серия 25/01/2016

_________________
info [Профиль]  [ЛС] 

Chel90RUS

Пол: Пол:Муж

Стаж: 5 лет 5 месяцев

Сообщений: 413

Россия
Рейтинг

post 03-Фев-2016 20:37 (спустя 8 дней) [-]0[+]

[Цитировать] 

Добавлена 42 серия 03/02/2016

_________________
info [Профиль]  [ЛС] 

Chel90RUS

Пол: Пол:Муж

Стаж: 5 лет 5 месяцев

Сообщений: 413

Россия
Рейтинг

post 13-Фев-2016 02:31 (спустя 9 дней) [-]0[+]

[Цитировать] 

Добавлена 43 серия 13/02/2016

_________________
info [Профиль]  [ЛС] 

Chel90RUS

Пол: Пол:Муж

Стаж: 5 лет 5 месяцев

Сообщений: 413

Россия
Рейтинг

post 19-Фев-2016 00:22 (спустя 5 дней) [-]0[+]

[Цитировать] 

Добавлена 44 серия 18/02/2016

_________________
info [Профиль]  [ЛС] 

Chel90RUS

Пол: Пол:Муж

Стаж: 5 лет 5 месяцев

Сообщений: 413

Россия
Рейтинг

post 24-Фев-2016 13:39 (спустя 5 дней) [-]0[+]

[Цитировать] 

Добавлена 45 серия 24/02/2016

_________________
info [Профиль]  [ЛС] 

Chel90RUS

Пол: Пол:Муж

Стаж: 5 лет 5 месяцев

Сообщений: 413

Россия
Рейтинг

post 11-Мар-2016 11:45 (спустя 15 дней) [-]0[+]

[Цитировать] 

Добавлена 46-47 серии 11/03/2016

_________________
info [Профиль]  [ЛС] 

Chel90RUS

Пол: Пол:Муж

Стаж: 5 лет 5 месяцев

Сообщений: 413

Россия
Рейтинг

post 15-Мар-2016 12:29 (спустя 4 дня) [-]0[+]

[Цитировать] 

Добавлена 48 серия 15/03/2016

_________________
info [Профиль]  [ЛС] 

Chel90RUS

Пол: Пол:Муж

Стаж: 5 лет 5 месяцев

Сообщений: 413

Россия
Рейтинг

post 24-Мар-2016 01:32 (спустя 8 дней) [-]0[+]

[Цитировать] 

Добавлена 49 серия 24/03/2016

_________________
info [Профиль]  [ЛС] 

Chel90RUS

Пол: Пол:Муж

Стаж: 5 лет 5 месяцев

Сообщений: 413

Россия
Рейтинг

post 04-Апр-2016 00:06 (спустя 10 дней) [-]0[+]

[Цитировать] 

Добавлена 50 серия 03/04/2016

_________________
info [Профиль]  [ЛС] 

Chel90RUS

Пол: Пол:Муж

Стаж: 5 лет 5 месяцев

Сообщений: 413

Россия
Рейтинг

post 12-Апр-2016 00:54 (спустя 8 дней) [-]0[+]

[Цитировать] 

Добавлена 51 серия 11/04/2016

_________________
info [Профиль]  [ЛС] 
Показать сообщения:    
Ответить на тему

Текущее время: 03-Дек 04:22

Часовой пояс: GMT + 4



Вы не можете начинать темы
Вы не можете отвечать на сообщения
Вы не можете редактировать свои сообщения
Вы не можете удалять свои сообщения
Вы не можете голосовать в опросах
Вы не можете прикреплять файлы к сообщениям
Вы не можете скачивать файлы