Ошибка

Монстры на каникулах 2 / Hotel Transylvania 2 (Генндий Тартаковский) [2015, мультфильм, фэнтези, комедия, семейный, WEB-DLRip-AVC] Dub от R.G. TNClub

Ответить на тему
 
Автор Сообщение

R.G. TNClub

Стаж: 2 года 3 месяца

Сообщений: 515

Рейтинг

post 23-Дек-2015 00:18 2[+]

[Цитировать] 

Монстры на каникулах 2 / Hotel Transylvania 2
«Drac's pack is back»

Страна: США , Великобритания
Жанр: мультфильм, фэнтези, комедия, семейный
Год выпуска: 2015
Продолжительность: 01:29:45
Перевод: Профессиональный (дублированный) [Лицензия iTunes] - русский
Субтитры: --
Оригинальная дорожка: --
Главы: --

Режиссер: Генндий Тартаковский
В ролях: Адам Сэндлер / Adam Sandler (Dracula, озвучка), Энди Сэмберг / Andy Samberg (Jonathan, озвучка), Селена Гомес / Selena Gomez (Mavis, озвучка), Кевин Джеймс / Kevin James (Frankenstein, озвучка), Стив Бушеми / Steve Buscemi (Wayne, озвучка), Дэвид Спейд / David Spade (Griffin, озвучка), Кигэн-Майкл Ки / Keegan-Michael Key (Murray, озвучка), Эшер Блинкофф / Asher Blinkoff (Dennis, озвучка)


Описание: Граф Дракула выдает свою очаровательную дочь замуж за парня из мира людей, и у молодой «смешанной» пары рождается сын. Станет ли этот ребенок человеком или вампиром?

Качество видео: WEB-DLRip-AVC
Рип от L
Формат видео: MKV
Видео: MPEG-4 AVC Video ~ 2.1Mbps 960 x 516 / 23,976 fps / 2.40:1 / High Profile 4.1
Аудио:
  • Russian: 48 kHz, AAC-LC, 3/2 (L,C,R,l,r) + LFE ch, ~260 kbps


Раздача от &
Web-DL 720p
Уникальный идентификатор : 181583967922569129404923371287379707296 (0x889BCCD4F1C00F869A212EF8AD8005A0)
Полное имя : D:\L#TNClub\Hotel.Transylvania.2.2015.Web-DL.Rip.aac.x264-TNClub.mkv
Формат : Matroska
Версия формата : Version 4 / Version 2
Размер файла : 1,47 Гбайт
Продолжительность : 1 ч. 29 м.
Общий поток : 2339 Кбит/сек
Название фильма : Hotel.Transylvania.2.2015.Web-DL.Rip.aac.x264-TNClub
Дата кодирования : UTC 2015-12-23 20:52:42
Программа кодирования : mkvmerge v8.3.0 ('Over the Horizon') 32bit
Библиотека кодирования : libebml v1.3.1 + libmatroska v1.4.2
Attachements : cover.png

Видео
Идентификатор : 1
Формат : AVC
Формат/Информация : Advanced Video Codec
Профиль формата : High@L4.1
Параметр CABAC формата : Да
Параметр ReFrames формата : 11 кадров
Идентификатор кодека : V_MPEG4/ISO/AVC
Продолжительность : 1 ч. 29 м.
Битрейт : 2079 Кбит/сек
Ширина : 960 пикселей
Высота : 516 пикселей
Соотношение сторон : 1,85:1
Режим частоты кадров : Постоянный
Частота кадров : 23,976 (24000/1001) кадра/сек
Цветовое пространство : YUV
Субдискретизация насыщенности : 4:2:0
Битовая глубина : 8 бит
Тип развёртки : Прогрессивная
Бит/(Пиксели*Кадры) : 0.175
Размер потока : 1,30 Гбайт (89%)
Заголовок : Hotel.Transylvania.2.2015.Web-DL.Rip.aac.x264-TNClub
Библиотека кодирования : x264 core 146 r2538 121396c
Настройки программы : cabac=1 / ref=11 / deblock=1:-2:-1 / analyse=0x3:0x133 / me=umh / subme=11 / psy=1 / psy_rd=1.05:0.10 / mixed_ref=1 / me_range=32 / chroma_me=1 / trellis=2 / 8x8dct=1 / cqm=0 / deadzone=21,11 / fast_pskip=0 / chroma_qp_offset=-4 / threads=6 / lookahead_threads=1 / sliced_threads=0 / nr=0 / decimate=1 / interlaced=0 / bluray_compat=0 / constrained_intra=0 / bframes=8 / b_pyramid=2 / b_adapt=2 / b_bias=0 / direct=3 / weightb=1 / open_gop=0 / weightp=2 / keyint=230 / keyint_min=22 / scenecut=40 / intra_refresh=0 / rc_lookahead=60 / rc=2pass / mbtree=0 / bitrate=2079 / ratetol=1.0 / qcomp=0.70 / qpmin=0 / qpmax=69 / qpstep=4 / cplxblur=20.0 / qblur=0.5 / vbv_maxrate=30000 / vbv_bufsize=40000 / nal_hrd=none / filler=0 / ip_ratio=1.35 / pb_ratio=1.25 / aq=2:0.90
Язык : English
Default : Да
Forced : Нет

Аудио
Идентификатор : 2
Формат : AAC
Формат/Информация : Advanced Audio Codec
Профиль формата : LC
Идентификатор кодека : A_AAC
Продолжительность : 1 ч. 29 м.
Битрейт : 265 Кбит/сек
Каналы : 6 каналов
Расположение каналов : Front: L C R, Side: L R, LFE
Частота : 48,0 КГц
Частота кадров : 46,875 кадров/сек (1024 spf)
Метод сжатия : С потерями
Задержка видео : 9 мс.
Размер потока : 166 Мбайт (11%)
Заголовок : aac-lc5.1@260kbpc
Язык : Russian
Default : Да
Forced : Нет
Пожалуйста, оставайтесь на раздаче как можно дольше!
Релиз специально для Tapochek.net
Все раздачи R.G.TNClub




Оформление by:GhostRidik
info [Профиль]  [ЛС] 

post 24-Дек-2015 00:55 (спустя 1 день) [-]0[+]

Топик был перенесен из форума Оформление раздач (R.G. TNClub) в форум Новинки 2014-2015 (Rips)

L
 

w0rn

Стаж: 3 года

Сообщений: 62

Рейтинг

post 25-Дек-2015 07:46 (спустя 2 дня 7 часов) [-]6[+]

[Цитировать] 

Звук и картинка отличные. Мульт - норм.
info [Профиль]  [ЛС] 

Конгрик

Пол: Пол:Муж

Стаж: 4 года 2 месяца

Сообщений: 228

Россия
Рейтинг

post 27-Дек-2015 10:52 (спустя 2 дня 3 часа) [-]6[+]

[Цитировать] 

Спасибо за раздачу!

_________________
Люблю людей, люблю когда их нет. Выйду на балкон, разряжу пистолет...
info [Профиль]  [ЛС] 

Remak

Стаж: 7 лет 8 месяцев

Сообщений: 405

Рейтинг

post 04-Янв-2016 14:56 (спустя 8 дней) [-]1[+]

[Цитировать] 

Ну вы имя либо уж пишите на русскоязычный манер - Геннадий Тартаковский, либо так, как его называют в США - Дженнди Тартаковски. :-) А Генндий - это что-то непонятное. :-)
info [Профиль]  [ЛС] 

L

Пол: Пол:Муж

Стаж: 6 лет 7 месяцев

Сообщений: 10815

Украина
Рейтинг

post 04-Янв-2016 20:47 (спустя 5 часов) [-]0[+]

[Цитировать] 

Remak писал(а):

Ну вы имя либо уж пишите на русскоязычный манер - Геннадий Тартаковский, либо так, как его называют в США - Дженнди Тартаковски. :-) А Генндий - это что-то непонятное. :-)
Будем писать так, как указывает кинопоиск / афиша, а не василий с форума.

_________________
info [Профиль]  [ЛС] 

post 05-Фев-2016 01:17 (спустя 1 месяц) [-]0[+]

Топик был перенесен из форума Новинки 2014-2015 (Rips) в форум Мультфильмы от R.G. TNСlub

LyaKich
 

vladimir_

Пол: Пол:Муж

Стаж: 3 года 10 месяцев

Сообщений: 9

Рейтинг

post 21-Мар-2016 23:17 (спустя 2 месяца 17 дней) [-]0[+]

[Цитировать] 

раздача хорошая, мультфильм на троечку, хуже первого, линеен, предсказуем.
info [Профиль]  [ЛС] 
Показать сообщения:    
Ответить на тему

Текущее время: 08-Дек 08:00

Часовой пояс: GMT + 4



Вы не можете начинать темы
Вы не можете отвечать на сообщения
Вы не можете редактировать свои сообщения
Вы не можете удалять свои сообщения
Вы не можете голосовать в опросах
Вы не можете прикреплять файлы к сообщениям
Вы не можете скачивать файлы