Ошибка

Миссия: невыполнима: Пенталогия / Mission: Impossible Pentalogy (Брайан Де Пальма, Джон Ву, Джей Джей Абрамс, Брэд Бёрд, Кристофер МакКуорри) [1996, 2000, 2006, 2011, 2015 г., боевик, триллер, приключения, BDRemux 1080p]

Ответить на тему
 
Автор Сообщение

Eвгений

Пол: Пол:Муж

Стаж: 6 лет 9 месяцев

Сообщений: 680

Россия
Рейтинг

post 18-Дек-2015 18:02 2[+]

[Цитировать] 

Миссия: невыполнима / Mission: Impossible

Год выпуска: 1996
Страна: США
Жанр: боевик, триллер, приключения
Продолжительность: 01:50:12
Перевод: Профессиональный (многоголосый, закадровый)
Язык субтитров: Русский (Позитив-Мультимедиа), Английский
Режиссер:
  • Брайан Де Пальма

В ролях:
  • Том Круз, Джон Войт, Эммануэль Беар, Генри Черны, Жан Рено, Винг Рэймс, Кристин Скотт Томас, Ванесса Рэдгрейв, Дэйл Дай, Марсель Юрес, Ion Caramitru, Ингеборга Дапкунайте, Valentina Yakunina, Марек Васут, Nathan Osgood, Джон МакЛафлин, Рольф Саксон, Карел Добры, Андреас Вишневски, Дэвид Шэйффер, Rudolf Pechan

Описание: Агент ЦРУ Итон Хант оказался в положении подозреваемого в предательстве «крота», из-за которого погибли несколько членов его команды, включая руководителя группы Джима Фелпса. В живых осталась еще только коллега Ханта - жена Фелпса агент Клэр. Чтобы снять с себя обвинения в предательстве, Ханту надо найти настоящего «крота».

РАЗДАЧА ОТ:
Качество: Blu-Ray Remux
Формат: BDMV
Видео кодек: MPEG-4 AVC
Аудио кодек: DTS-HD MA, AC3
Видео: 1920x1080 at 23.976 fps, ~31914 kbps avg
Аудио#1: Russian: 48 kHz/24-bit, DTS-HD MA 5.1, ~3790.00 kbps avg |Многоголосый закадровый, Позитив-Мультимедиа|
Аудио#2: Russian: 48 kHz, AC3, 3/2 (L,C,R,l,r) + LFE ch, ~384.00 kbps avg |Многоголосый закадровый, Киномания|
Аудио#3: Russian: 48 kHz, AC3, 3/2 (L,C,R,l,r) + LFE ch, ~448.00 kbps avg |Многоголосый закадровый, НТВ|
Аудио#4: Russian: 48 kHz, AC3, 2/0 (L,R) ch, ~224.00 kbps avg |Многоголосый закадровый, ОРТ|
Аудио#5: Russian: 48 kHz, AC3, 2/0 (L,R) ch, ~224.00 kbps avg |Многоголосый закадровый, СТС|
Аудио#6: Ukrainian: 48 kHz, AC3, 2/0 (L,R) ch, ~224.00 kbps avg |Многоголосый закадровый, ICTV|
Аудио#7: Russian: 48 kHz, AC3, 2/0 (L,R) ch, ~192.00 kbps avg |Двухголосый закадровый, Премьер Видео|
Аудио#8: Russian: 48 kHz/24-bit, DTS-HD MA 5.1, ~3784.00 kbps avg |Двухголосый закадровый, П.Гланц и И.Королёва|
Аудио#9: Russian: 48 kHz/24-bit, DTS-HD MA 5.1, ~3782.00 kbps avg |Одноголосый закадровый, А.Гаврилов|
Аудио#10: Russian: 48 kHz/24-bit, DTS-HD MA 5.1, ~3784.00 kbps avg |Одноголосый закадровый, С.Визгунов|
Аудио#11: Russian: 48 kHz/24-bit, DTS-HD MA 5.1, ~3788.00 kbps avg |Одноголосый закадровый, Ю.Живов|
Аудио#12: Russian: 48 kHz, AC3, 3/2 (L,C,R,l,r) + LFE ch, ~384.00 kbps avg |Одноголосый закадровый, М.Латышев|
Аудио#13: English: 48 kHz/24-bit, DTS-HD MA 5.1, ~3818.00 kbps avg
Disc Title: MISSION_IMPOSIBLE_1
Disc Size: 50 323 372 896 bytes
Protection: AACS
BD-Java: No
BDInfo: 0.5.8

Notes:

BDINFO HOME:
Cinema Squid
http://www.cinemasquid.com/blu-ray/tools/bdinfo

INCLUDES FORUMS REPORT FOR:
AVS Forum Blu-ray Audio and Video Specifications Thread
http://www.avsforum.com/avs-vb/showthread.php?t=1155731

********************
PLAYLIST: 00000.MPLS
********************

Код:

                                                                                                                Total   Video                                             
Title                                                           Codec   Length  Movie Size      Disc Size       Bitrate Bitrate Main Audio Track                          Secondary Audio Track
-----                                                           ------  ------- --------------  --------------  ------- ------- ------------------                        ---------------------
00000.MPLS                                                      AVC     1:50:12 50 323 249 152  50 323 372 896  60,88   31,91   DTS-HD Master 5.1 3790Kbps (48kHz/24-bit) DD AC3 5.1 384Kbps


Код:



DISC INFO:

Disc Title:     MISSION_IMPOSIBLE_1
Disc Size:      50 323 372 896 bytes
Protection:     AACS
BD-Java:        No
BDInfo:         0.5.8

PLAYLIST REPORT:

Name:                   00000.MPLS
Length:                 1:50:12.597 (h:m:s.ms)
Size:                   50 323 249 152 bytes
Total Bitrate:          60,88 Mbps

VIDEO:

Codec                   Bitrate             Description     
-----                   -------             -----------     
MPEG-4 AVC Video        31914 kbps          1080p / 23,976 fps / 16:9 / High Profile 4.1

AUDIO:

Codec                           Language        Bitrate         Description     
-----                           --------        -------         -----------     
DTS-HD Master Audio             Russian         3790 kbps       5.1 / 48 kHz / 3790 kbps / 24-bit (DTS Core: 5.1 / 48 kHz / 1509 kbps / 24-bit)
Dolby Digital Audio             Russian         384 kbps        5.1 / 48 kHz / 384 kbps / DN -4dB
Dolby Digital Audio             Russian         448 kbps        5.1 / 48 kHz / 448 kbps / DN -4dB
Dolby Digital Audio             Russian         224 kbps        2.0 / 48 kHz / 224 kbps / DN -4dB
Dolby Digital Audio             Russian         224 kbps        2.0 / 48 kHz / 224 kbps / DN -4dB
Dolby Digital Audio             Ukrainian       224 kbps        2.0 / 48 kHz / 224 kbps / DN -4dB
Dolby Digital Audio             Russian         192 kbps        2.0 / 48 kHz / 192 kbps / DN -4dB
DTS-HD Master Audio             Russian         3784 kbps       5.1 / 48 kHz / 3784 kbps / 24-bit (DTS Core: 5.1 / 48 kHz / 1509 kbps / 24-bit)
DTS-HD Master Audio             Russian         3781 kbps       5.1 / 48 kHz / 3781 kbps / 24-bit (DTS Core: 5.1 / 48 kHz / 1509 kbps / 24-bit)
DTS-HD Master Audio             Russian         3784 kbps       5.1 / 48 kHz / 3784 kbps / 24-bit (DTS Core: 5.1 / 48 kHz / 1509 kbps / 24-bit)
DTS-HD Master Audio             Russian         3788 kbps       5.1 / 48 kHz / 3788 kbps / 24-bit (DTS Core: 5.1 / 48 kHz / 1509 kbps / 24-bit)
Dolby Digital Audio             Russian         384 kbps        5.1 / 48 kHz / 384 kbps / DN -4dB
DTS-HD Master Audio             English         3818 kbps       5.1 / 48 kHz / 3818 kbps / 24-bit (DTS Core: 5.1 / 48 kHz / 1509 kbps / 24-bit)

SUBTITLES:

Codec                           Language        Bitrate         Description     
-----                           --------        -------         -----------     
Presentation Graphics           Russian         16,577 kbps                     
Presentation Graphics           English         24,967 kbps                     

FILES:

Name            Time In         Length          Size            Total Bitrate   
----            -------         ------          ----            -------------   
00000.M2TS      0:00:00.000     1:50:12.597     50 323 249 152  60 882         

CHAPTERS:

Number          Time In         Length          Avg Video Rate  Max 1-Sec Rate  Max 1-Sec Time  Max 5-Sec Rate  Max 5-Sec Time  Max 10Sec Rate  Max 10Sec Time  Avg Frame Size  Max Frame Size  Max Frame Time 
------          -------         ------          --------------  --------------  --------------  --------------  --------------  --------------  --------------  --------------  --------------  -------------- 
1               0:00:00.000     0:03:00.971     31 702 kbps     54 982 kbps     00:00:01.793    36 415 kbps     00:00:01.793    34 901 kbps     00:00:01.793    165 240 bytes   767 252 bytes   00:00:16.808   
2               0:03:00.971     0:07:43.754     31 724 kbps     54 115 kbps     00:03:04.851    37 470 kbps     00:03:32.337    35 562 kbps     00:03:27.457    165 396 bytes   680 574 bytes   00:10:42.808   
3               0:10:44.726     0:15:59.083     31 618 kbps     51 004 kbps     00:23:44.047    37 557 kbps     00:23:40.127    33 863 kbps     00:23:34.871    164 839 bytes   614 440 bytes   00:15:36.977   
4               0:26:43.809     0:05:37.670     32 072 kbps     47 394 kbps     00:31:53.828    37 050 kbps     00:31:54.037    36 234 kbps     00:31:56.748    167 207 bytes   599 073 bytes   00:30:53.017   
5               0:32:21.480     0:07:28.907     32 248 kbps     52 494 kbps     00:36:50.333    37 161 kbps     00:36:22.638    35 465 kbps     00:35:59.115    168 126 bytes   651 155 bytes   00:35:18.199   
6               0:39:50.387     0:09:48.753     31 922 kbps     45 547 kbps     00:45:53.000    36 135 kbps     00:41:59.600    34 480 kbps     00:41:39.079    166 424 bytes   635 224 bytes   00:49:39.142   
7               0:49:39.141     0:06:06.491     32 073 kbps     45 307 kbps     00:55:14.519    35 643 kbps     00:54:02.572    34 800 kbps     00:54:58.461    167 213 bytes   597 471 bytes   00:55:42.172   
8               0:55:45.632     0:16:40.084     32 152 kbps     48 996 kbps     00:56:01.399    36 457 kbps     00:56:11.785    35 636 kbps     00:56:06.029    167 626 bytes   655 889 bytes   01:00:44.390   
9               1:12:25.716     0:06:08.741     32 178 kbps     44 475 kbps     01:14:20.914    35 180 kbps     01:15:56.551    33 316 kbps     01:16:57.321    167 760 bytes   667 413 bytes   01:14:21.081   
10              1:18:34.457     0:09:40.079     32 049 kbps     50 426 kbps     01:23:37.846    36 029 kbps     01:27:08.348    35 405 kbps     01:27:05.845    167 088 bytes   653 501 bytes   01:22:10.008   
11              1:28:14.537     0:09:52.175     32 127 kbps     47 846 kbps     01:28:14.872    35 081 kbps     01:37:28.676    33 437 kbps     01:36:21.400    167 495 bytes   580 613 bytes   01:33:48.622   
12              1:38:06.713     0:05:56.065     32 093 kbps     55 033 kbps     01:40:20.097    37 004 kbps     01:42:43.907    34 501 kbps     01:40:10.879    167 316 bytes   552 274 bytes   01:39:24.291   
13              1:44:02.778     0:06:09.819     30 672 kbps     49 733 kbps     01:50:06.599    36 253 kbps     01:48:13.194    35 395 kbps     01:46:30.801    159 922 bytes   781 557 bytes   01:50:06.725   

STREAM DIAGNOSTICS:

File            PID             Type            Codec           Language                Seconds                 Bitrate                 Bytes           Packets         
----            ---             ----            -----           --------                --------------          --------------          -------------   -----           
00000.M2TS      4113 (0x1011)   0x1B            AVC                                     6612,523                31 914                  26 379 136 762  143 458 271     
00000.M2TS      4352 (0x1100)   0x86            DTS-HD MA       rus (Russian)           6612,523                3 790                   3 132 311 128   18 053 339     
00000.M2TS      4353 (0x1101)   0x81            AC3             rus (Russian)           6612,523                384                     317 405 184     1 859 796       
00000.M2TS      4354 (0x1102)   0x81            AC3             rus (Russian)           6612,523                448                     370 306 048     2 066 440       
00000.M2TS      4355 (0x1103)   0x81            AC3             rus (Russian)           6612,523                224                     185 153 024     1 033 220       
00000.M2TS      4356 (0x1104)   0x81            AC3             rus (Russian)           6612,523                224                     185 153 024     1 033 220       
00000.M2TS      4357 (0x1105)   0x81            AC3             ukr (Ukrainian)         6612,523                224                     185 153 024     1 033 220       
00000.M2TS      4358 (0x1106)   0x81            AC3             rus (Russian)           6612,523                192                     158 702 592     1 033 220       
00000.M2TS      4359 (0x1107)   0x86            DTS-HD MA       rus (Russian)           6612,523                3 784                   3 127 851 984   18 028 771     
00000.M2TS      4360 (0x1108)   0x86            DTS-HD MA       rus (Russian)           6612,523                3 782                   3 125 685 228   18 017 429     
00000.M2TS      4361 (0x1109)   0x86            DTS-HD MA       rus (Russian)           6612,523                3 784                   3 127 849 820   18 029 336     
00000.M2TS      4362 (0x110A)   0x86            DTS-HD MA       rus (Russian)           6612,523                3 788                   3 131 077 548   18 046 976     
00000.M2TS      4363 (0x110B)   0x81            AC3             rus (Russian)           6612,523                384                     317 405 184     1 859 796       
00000.M2TS      4364 (0x110C)   0x86            DTS-HD MA       eng (English)           6612,523                3 818                   3 155 463 172   18 184 496     
00000.M2TS      4608 (0x1200)   0x90            PGS             rus (Russian)           6612,523                17                      13 702 271      81 731         
00000.M2TS      4609 (0x1201)   0x90            PGS             eng (English)           6612,523                25                      20 636 875      118 671         





Миссия: невыполнима 2 / Mission: Impossible II

Год выпуска: 2000
Страна: США, Германия
Жанр: боевик, триллер, приключения
Продолжительность: 02:03:35
Перевод: Профессиональный (многоголосый, закадровый)
Язык субтитров: Русский (Позитив-Мультимедиа), Английский
Режиссер:
  • Джон Ву

В ролях:
  • Том Круз, Дугрей Скотт, Тэнди Ньютон, Винг Рэймс, Ричард Роксбур, Джон Полсон, Брендан Глисон, Рейд Сербеджия, Уильям Мапотер, Доминик Пурселл, Мэттью Уилкинсон, Николас Белл, Cristina Brogers, Ки Чан, Ким Флеминг, Алан Ловелл, Dan Luxton, Кристиан Мэнон, Карл МакМиллан, Лестер Моррис, Kelly Ons

Описание: Если мир внезапно оказывается перед лицом ужасной катастрофы, есть лишь один человек, который может исправить это ужасное положение. Его имя Итан Хант, он прирожденный специалист по разрешению самых неразрешимых ситуаций.

Теперь у Итана - новый, строгий начальник, новая очаровательная возлюбленная, новый коварный противник и новое задание, которое простому смертному просто не по плечу. Но Итан Хант не был бы Итаном Хантом, если бы не смог с блеском выполнить очередную невыполнимую миссию: справиться с кровожадными террористами и спасти планету от ужасного, смертельного вируса!

РАЗДАЧА ОТ:
Качество: Blu-Ray Remux
Формат: BDMV
Видео кодек: MPEG-4 AVC
Аудио кодек: DTS-HD MA, AC3
Видео: 1920x1080 at 23.976 fps, ~31731 kbps avg
Аудио#1: Russian: 48 kHz/24-bit, DTS-HD MA 5.1, ~4251.00 kbps avg |Многоголосый закадровый, Позитив-Мультимедиа|
Аудио#2: Russian: 48 kHz, AC3, 3/2 (L,C,R,l,r) + LFE ch, ~448.00 kbps avg |Многоголосый закадровый, НТВ|
Аудио#3: Russian: 48 kHz, AC3, 2/0 (L,R) ch, ~224.00 kbps avg |Многоголосый закадровый, ОРТ|
Аудио#4: Russian: 48 kHz, AC3, 2/0 (L,R) ch, ~224.00 kbps avg |Многоголосый закадровый, СТС|
Аудио#5: Ukrainian: 48 kHz, AC3, 2/0 (L,R) ch, ~224.00 kbps avg |Многоголосый закадровый, Новий канал|
Аудио#6: Russian: 48 kHz, AC3, 2/0 (L,R) ch, ~192.00 kbps avg |Двухголосый закадровый, Премьер Видео|
Аудио#7: Russian: 48 kHz/24-bit, DTS-HD MA 5.1, ~4245.00 kbps avg |Двухголосый закадровый, П.Гланц и И.Королёва|
Аудио#8: Russian: 48 kHz/24-bit, DTS-HD MA 5.1, ~4244.00 kbps avg |Одноголосый закадровый, А.Гаврилов|
Аудио#9: Russian: 48 kHz/24-bit, DTS-HD MA 5.1, ~4241.00 kbps avg |Одноголосый закадровый, С.Визгунов|
Аудио#10: Russian: 48 kHz, AC3, 3/2 (L,C,R,l,r) + LFE ch, ~448.00 kbps avg |Одноголосый закадровый, М.Латышев|
Аудио#11: English: 48 kHz/24-bit, DTS-HD MA 5.1, ~4362.00 kbps avg
Disc Title: MISSION_IMPOSIBLE_2
Disc Size: 54 316 767 328 bytes
Protection: AACS
BD-Java: No
BDInfo: 0.5.8

Notes:

BDINFO HOME:
Cinema Squid
http://www.cinemasquid.com/blu-ray/tools/bdinfo

INCLUDES FORUMS REPORT FOR:
AVS Forum Blu-ray Audio and Video Specifications Thread
http://www.avsforum.com/avs-vb/showthread.php?t=1155731

********************
PLAYLIST: 00000.MPLS
********************

Код:

                                                                                                                Total   Video                                             
Title                                                           Codec   Length  Movie Size      Disc Size       Bitrate Bitrate Main Audio Track                          Secondary Audio Track
-----                                                           ------  ------- --------------  --------------  ------- ------- ------------------                        ---------------------
00000.MPLS                                                      AVC     2:03:35 54 316 627 968  54 316 767 328  58,60   31,73   DTS-HD Master 5.1 4251Kbps (48kHz/24-bit) DD AC3 5.1 448Kbps


Код:



DISC INFO:

Disc Title:     MISSION_IMPOSIBLE_2
Disc Size:      54 316 767 328 bytes
Protection:     AACS
BD-Java:        No
BDInfo:         0.5.8

PLAYLIST REPORT:

Name:                   00000.MPLS
Length:                 2:03:35.402 (h:m:s.ms)
Size:                   54 316 627 968 bytes
Total Bitrate:          58,60 Mbps

VIDEO:

Codec                   Bitrate             Description     
-----                   -------             -----------     
MPEG-4 AVC Video        31731 kbps          1080p / 23,976 fps / 16:9 / High Profile 4.1

AUDIO:

Codec                           Language        Bitrate         Description     
-----                           --------        -------         -----------     
DTS-HD Master Audio             Russian         4251 kbps       5.1 / 48 kHz / 4251 kbps / 24-bit (DTS Core: 5.1 / 48 kHz / 1509 kbps / 24-bit)
Dolby Digital Audio             Russian         448 kbps        5.1 / 48 kHz / 448 kbps / DN -4dB
Dolby Digital Audio             Russian         224 kbps        2.0 / 48 kHz / 224 kbps / DN -4dB
Dolby Digital Audio             Russian         224 kbps        2.0 / 48 kHz / 224 kbps / DN -4dB
Dolby Digital Audio             Ukrainian       224 kbps        2.0 / 48 kHz / 224 kbps / DN -4dB
Dolby Digital Audio             Russian         192 kbps        2.0 / 48 kHz / 192 kbps / DN -4dB
DTS-HD Master Audio             Russian         4245 kbps       5.1 / 48 kHz / 4245 kbps / 24-bit (DTS Core: 5.1 / 48 kHz / 1509 kbps / 24-bit)
DTS-HD Master Audio             Russian         4244 kbps       5.1 / 48 kHz / 4244 kbps / 24-bit (DTS Core: 5.1 / 48 kHz / 1509 kbps / 24-bit)
DTS-HD Master Audio             Russian         4241 kbps       5.1 / 48 kHz / 4241 kbps / 24-bit (DTS Core: 5.1 / 48 kHz / 1509 kbps / 24-bit)
Dolby Digital Audio             Russian         448 kbps        5.1 / 48 kHz / 448 kbps / DN -4dB
DTS-HD Master Audio             English         4362 kbps       5.1 / 48 kHz / 4362 kbps / 24-bit (DTS Core: 5.1 / 48 kHz / 1509 kbps / 24-bit)

SUBTITLES:

Codec                           Language        Bitrate         Description     
-----                           --------        -------         -----------     
Presentation Graphics           Russian         15,122 kbps                     
Presentation Graphics           English         21,732 kbps                     

FILES:

Name            Time In         Length          Size            Total Bitrate   
----            -------         ------          ----            -------------   
00000.M2TS      0:00:00.000     2:03:35.402     54 316 627 968  58 599         

CHAPTERS:

Number          Time In         Length          Avg Video Rate  Max 1-Sec Rate  Max 1-Sec Time  Max 5-Sec Rate  Max 5-Sec Time  Max 10Sec Rate  Max 10Sec Time  Avg Frame Size  Max Frame Size  Max Frame Time 
------          -------         ------          --------------  --------------  --------------  --------------  --------------  --------------  --------------  --------------  --------------  -------------- 
1               0:00:00.000     0:05:57.023     31 640 kbps     43 565 kbps     00:00:21.104    36 020 kbps     00:01:32.550    34 446 kbps     00:01:32.592    164 939 bytes   542 900 bytes   00:01:18.912   
2               0:05:57.023     0:04:42.323     31 946 kbps     50 672 kbps     00:10:03.811    35 080 kbps     00:10:01.976    33 941 kbps     00:08:26.255    166 550 bytes   532 792 bytes   00:07:20.648   
3               0:10:39.346     0:07:24.068     31 099 kbps     39 990 kbps     00:12:55.107    35 850 kbps     00:10:39.513    33 706 kbps     00:10:39.347    162 136 bytes   536 376 bytes   00:17:56.825   
4               0:18:03.414     0:05:43.928     32 089 kbps     43 502 kbps     00:20:48.121    35 628 kbps     00:19:48.729    34 779 kbps     00:19:43.140    167 296 bytes   517 753 bytes   00:20:58.048   
5               0:23:47.342     0:11:00.534     31 077 kbps     46 579 kbps     00:33:50.319    36 609 kbps     00:34:29.525    35 779 kbps     00:34:24.061    162 023 bytes   620 561 bytes   00:30:59.857   
6               0:34:47.876     0:10:52.194     32 525 kbps     52 482 kbps     00:38:14.333    36 303 kbps     00:35:03.726    35 838 kbps     00:35:03.726    169 573 bytes   751 794 bytes   00:38:14.375   
7               0:45:40.070     0:10:28.335     32 395 kbps     46 351 kbps     00:46:59.274    35 825 kbps     00:45:49.288    35 178 kbps     00:45:44.533    168 891 bytes   604 436 bytes   00:53:40.926   
8               0:56:08.405     0:08:59.289     31 191 kbps     41 197 kbps     00:56:31.387    34 458 kbps     00:58:59.869    33 597 kbps     01:00:20.533    162 617 bytes   534 952 bytes   00:58:03.730   
9               1:05:07.695     0:06:31.266     31 075 kbps     47 365 kbps     01:11:34.331    34 817 kbps     01:11:26.991    34 094 kbps     01:06:01.707    162 012 bytes   625 347 bytes   01:05:12.617   
10              1:11:38.961     0:06:45.778     31 396 kbps     55 176 kbps     01:15:55.425    37 450 kbps     01:15:51.255    35 690 kbps     01:15:46.041    163 683 bytes   624 296 bytes   01:11:59.064   
11              1:18:24.740     0:07:35.164     31 431 kbps     45 475 kbps     01:24:57.592    36 187 kbps     01:23:04.479    34 050 kbps     01:23:04.479    163 866 bytes   587 920 bytes   01:21:17.330   
12              1:25:59.904     0:09:40.204     31 226 kbps     44 660 kbps     01:26:00.488    35 677 kbps     01:28:00.942    33 841 kbps     01:27:16.522    162 800 bytes   517 115 bytes   01:29:06.716   
13              1:35:40.109     0:04:36.692     31 674 kbps     46 035 kbps     01:37:01.815    35 051 kbps     01:40:06.250    34 207 kbps     01:37:12.535    165 131 bytes   508 786 bytes   01:35:44.864   
14              1:40:16.801     0:09:16.890     33 133 kbps     47 591 kbps     01:46:54.616    37 149 kbps     01:42:40.362    35 946 kbps     01:41:21.492    172 739 bytes   563 409 bytes   01:45:33.744   
15              1:49:33.692     0:04:25.471     32 435 kbps     44 630 kbps     01:49:45.453    35 284 kbps     01:53:20.793    34 279 kbps     01:52:37.500    169 101 bytes   500 356 bytes   01:53:01.691   
16              1:53:59.164     0:04:59.424     32 460 kbps     47 740 kbps     01:57:50.855    35 403 kbps     01:57:31.669    34 103 kbps     01:57:50.813    169 229 bytes   528 842 bytes   01:58:16.672   
17              1:58:58.588     0:04:36.814     30 182 kbps     49 965 kbps     02:03:29.026    36 119 kbps     02:02:06.444    35 341 kbps     01:59:17.233    157 379 bytes   611 966 bytes   02:03:29.235   

STREAM DIAGNOSTICS:

File            PID             Type            Codec           Language                Seconds                 Bitrate                 Bytes           Packets         
----            ---             ----            -----           --------                --------------          --------------          -------------   -----           
00000.M2TS      4113 (0x1011)   0x1B            AVC                                     7415,325                31 732                  29 412 506 401  159 955 084     
00000.M2TS      4352 (0x1100)   0x86            DTS-HD MA       rus (Russian)           7415,325                4 251                   3 940 579 096   22 571 223     
00000.M2TS      4353 (0x1101)   0x81            AC3             rus (Russian)           7415,325                448                     415 263 744     2 317 320       
00000.M2TS      4354 (0x1102)   0x81            AC3             rus (Russian)           7415,325                224                     207 631 872     1 158 660       
00000.M2TS      4355 (0x1103)   0x81            AC3             rus (Russian)           7415,325                224                     207 631 872     1 158 660       
00000.M2TS      4356 (0x1104)   0x81            AC3             ukr (Ukrainian)         7415,325                224                     207 631 872     1 158 660       
00000.M2TS      4357 (0x1105)   0x81            AC3             rus (Russian)           7415,325                192                     177 970 176     1 158 660       
00000.M2TS      4358 (0x1106)   0x86            DTS-HD MA       rus (Russian)           7415,325                4 245                   3 934 594 252   22 538 859     
00000.M2TS      4359 (0x1107)   0x86            DTS-HD MA       rus (Russian)           7415,325                4 244                   3 934 034 908   22 536 607     
00000.M2TS      4360 (0x1108)   0x86            DTS-HD MA       rus (Russian)           7415,325                4 241                   3 931 169 216   22 521 249     
00000.M2TS      4361 (0x1109)   0x81            AC3             rus (Russian)           7415,325                448                     415 263 744     2 317 320       
00000.M2TS      4362 (0x110A)   0x86            DTS-HD MA       eng (English)           7415,325                4 362                   4 043 157 648   23 127 414     
00000.M2TS      4608 (0x1200)   0x90            PGS             rus (Russian)           7415,325                15                      14 016 854      81 654         
00000.M2TS      4609 (0x1201)   0x90            PGS             eng (English)           7415,325                22                      20 144 199      115 721         





Миссия: невыполнима 3 / Mission: Impossible III

Год выпуска: 2006
Страна: США, Германия, Китай
Жанр: боевик, триллер, приключения
Продолжительность: 02:05:24
Перевод: Профессиональный (полное дублирование)
Язык субтитров: Русский (Позитив-Мультимедиа), Русский (Blu-ray CEE), Украинский (Blu-ray CEE), Английский, Английский (комментарии)
Режиссер:
  • Джей Джей Абрамс

В ролях:
  • Том Круз, Филип Сеймур Хоффман, Винг Реймз, Билли Крудап, Мишель Монахэн, Джонатан Риз Мейерс, Кери Рассел, Мэгги Кью, Саймон Пегг, Эдди Марсан

Описание: Суперагент Итан Хант решил расстаться с оперативной работой и заняться подготовкой курсантов. Он даже решил жениться на привлекательной, ни о чём не ведающей Джулии. Руководство ЦРУ просит его принять участие в последней операции: спасении его бывшей ученицы Линдси Феррис из лап торговца оружием Оуэна Дэвиана. Мог ли Итан предположить, что за этим заданием последует целая череда смертельно опасных миссий в Ватикане, Нью-Йорке и Шанхае?

РАЗДАЧА ОТ:
Качество: Blu-Ray Remux
Формат: BDMV
Видео кодек: MPEG-4 AVC
Аудио кодек: DTS-HD MA, AC3
Видео: 1920x1080 at 23.976 fps, ~31815 kbps avg
Аудио#1: Russian: 48 kHz, AC3, 3/2 (L,C,R,l,r) + LFE ch, ~640.00 kbps avg |Дубляж, Blu-ray CEE|
Аудио#2: Russian: 48 kHz/24-bit, DTS-HD MA 5.1, ~3774.00 kbps avg |Многоголосый закадровый, Позитив-Мультимедиа|
Аудио#3: Russian: 48 kHz, AC3, 3/2 (L,C,R,l,r) + LFE ch, ~448.00 kbps avg |Многоголосый закадровый, Киномания|
Аудио#4: Ukrainian: 48 kHz, AC3, 2/0 (L,R) ch, ~224.00 kbps avg |Многоголосый закадровый, ICTV|
Аудио#5: Russian: 48 kHz, AC3, 3/2 (L,C,R,l,r) + LFE ch, ~448.00 kbps avg |Двухголосый закадровый, SUPERBIT|
Аудио#6: Russian: 48 kHz/24-bit, DTS-HD MA 5.1, ~3771.00 kbps avg |Двухголосый закадровый, П.Гланц и И.Королёва|
Аудио#7: Russian: 48 kHz/24-bit, DTS-HD MA 5.1, ~3792.00 kbps avg |Одноголосый закадровый, А.Гаврилов|
Аудио#8: Russian: 48 kHz, AC3, 3/2 (L,C,R,l,r) + LFE ch, ~448.00 kbps avg |Одноголосый закадровый, С.Рябов|
Аудио#9: English: 48 kHz/24-bit, DTS-HD MA 5.1, ~3834.00 kbps avg
Аудио#10: English: 48 kHz, AC3, 2/0 (L,R) ch, ~192.00 kbps avg |Commentary with Director J.J. Abrams and Actor Tom Cruise|
Disc Title: MISSION_IMPOSIBLE_3
Disc Size: 49 633 654 476 bytes
Protection: AACS
BD-Java: No
BDInfo: 0.5.8

Notes:

BDINFO HOME:
Cinema Squid
http://www.cinemasquid.com/blu-ray/tools/bdinfo

INCLUDES FORUMS REPORT FOR:
AVS Forum Blu-ray Audio and Video Specifications Thread
http://www.avsforum.com/avs-vb/showthread.php?t=1155731

********************
PLAYLIST: 00000.MPLS
********************

Код:

                                                                                                                Total   Video                                             
Title                                                           Codec   Length  Movie Size      Disc Size       Bitrate Bitrate Main Audio Track                          Secondary Audio Track
-----                                                           ------  ------- --------------  --------------  ------- ------- ------------------                        ---------------------
00000.MPLS                                                      AVC     2:05:24 49 633 505 280  49 633 654 476  52,77   31,81   DD AC3 5.1 640Kbps                        DTS-HD Master 5.1 3733Kbps (48kHz/24-bit)


Код:



DISC INFO:

Disc Title:     MISSION_IMPOSIBLE_3
Disc Size:      49 633 654 476 bytes
Protection:     AACS
BD-Java:        No
BDInfo:         0.5.8

PLAYLIST REPORT:

Name:                   00000.MPLS
Length:                 2:05:24.512 (h:m:s.ms)
Size:                   49 633 505 280 bytes
Total Bitrate:          52,77 Mbps

VIDEO:

Codec                   Bitrate             Description     
-----                   -------             -----------     
MPEG-4 AVC Video        31815 kbps          1080p / 23,976 fps / 16:9 / High Profile 4.1

AUDIO:

Codec                           Language        Bitrate         Description     
-----                           --------        -------         -----------     
Dolby Digital Audio             Russian         640 kbps        5.1 / 48 kHz / 640 kbps
DTS-HD Master Audio             Russian         3733 kbps       5.1 / 48 kHz / 3733 kbps / 24-bit (DTS Core: 5.1 / 48 kHz / 1509 kbps / 24-bit)
Dolby Digital Audio             Russian         448 kbps        5.1 / 48 kHz / 448 kbps / DN -4dB
Dolby Digital Audio             Ukrainian       224 kbps        2.0 / 48 kHz / 224 kbps / DN -4dB
Dolby Digital Audio             Russian         448 kbps        5.1 / 48 kHz / 448 kbps / DN -4dB
DTS-HD Master Audio             Russian         3732 kbps       5.1 / 48 kHz / 3732 kbps / 24-bit (DTS Core: 5.1 / 48 kHz / 1509 kbps / 24-bit)
DTS-HD Master Audio             Russian         3736 kbps       5.1 / 48 kHz / 3736 kbps / 24-bit (DTS Core: 5.1 / 48 kHz / 1509 kbps / 24-bit)
Dolby Digital Audio             Russian         448 kbps        5.1 / 48 kHz / 448 kbps / DN -4dB
DTS-HD Master Audio             English         3880 kbps       5.1 / 48 kHz / 3880 kbps / 24-bit (DTS Core: 5.1 / 48 kHz / 1509 kbps / 24-bit)
Dolby Digital Audio             English         192 kbps        2.0 / 48 kHz / 192 kbps / DN -4dB

SUBTITLES:

Codec                           Language        Bitrate         Description     
-----                           --------        -------         -----------     
Presentation Graphics           Russian         18,605 kbps                     
Presentation Graphics           Russian         20,096 kbps                     
Presentation Graphics           Ukrainian       20,274 kbps                     
Presentation Graphics           English         28,931 kbps                     
Presentation Graphics           English         71,030 kbps                     

FILES:

Name            Time In         Length          Size            Total Bitrate   
----            -------         ------          ----            -------------   
00000.M2TS      0:00:00.000     2:05:24.512     49 633 505 280  52 770         

CHAPTERS:

Number          Time In         Length          Avg Video Rate  Max 1-Sec Rate  Max 1-Sec Time  Max 5-Sec Rate  Max 5-Sec Time  Max 10Sec Rate  Max 10Sec Time  Avg Frame Size  Max Frame Size  Max Frame Time 
------          -------         ------          --------------  --------------  --------------  --------------  --------------  --------------  --------------  --------------  --------------  -------------- 
1               0:00:00.000     0:04:02.448     30 050 kbps     46 038 kbps     00:03:30.877    36 941 kbps     00:03:56.527    35 624 kbps     00:03:51.481    156 641 bytes   643 016 bytes   00:00:18.852   
2               0:04:02.448     0:08:55.410     31 801 kbps     48 065 kbps     00:06:57.917    35 533 kbps     00:06:04.822    34 539 kbps     00:09:36.117    165 797 bytes   626 039 bytes   00:06:57.959   
3               0:12:57.859     0:08:20.207     32 133 kbps     52 137 kbps     00:17:53.530    38 508 kbps     00:18:12.716    36 065 kbps     00:17:58.744    167 525 bytes   674 701 bytes   00:14:20.693   
4               0:21:18.067     0:05:14.230     31 669 kbps     55 301 kbps     00:22:37.773    37 002 kbps     00:23:46.550    35 051 kbps     00:25:40.705    165 107 bytes   738 097 bytes   00:22:37.814   
5               0:26:32.297     0:06:24.174     31 995 kbps     42 017 kbps     00:30:44.592    35 731 kbps     00:26:33.049    34 513 kbps     00:26:33.049    166 807 bytes   678 218 bytes   00:30:16.981   
6               0:32:56.472     0:06:34.020     31 316 kbps     45 229 kbps     00:33:40.059    35 526 kbps     00:35:32.296    34 274 kbps     00:35:32.088    163 269 bytes   638 827 bytes   00:33:46.399   
7               0:39:30.492     0:07:25.945     32 904 kbps     54 006 kbps     00:45:53.834    36 862 kbps     00:41:33.949    35 824 kbps     00:42:31.382    171 549 bytes   750 366 bytes   00:44:27.956   
8               0:46:56.438     0:04:47.871     32 249 kbps     45 444 kbps     00:48:03.505    35 452 kbps     00:46:57.981    34 623 kbps     00:49:05.233    168 131 bytes   556 647 bytes   00:51:44.309   
9               0:51:44.309     0:05:50.558     32 654 kbps     47 443 kbps     00:56:33.264    37 232 kbps     00:56:33.306    34 553 kbps     00:52:36.403    170 243 bytes   746 596 bytes   00:56:33.723   
10              0:57:34.867     0:04:34.106     32 920 kbps     50 969 kbps     01:00:11.733    36 702 kbps     01:00:34.213    35 730 kbps     01:00:30.793    171 628 bytes   569 902 bytes   00:57:46.254   
11              1:02:08.974     0:06:57.666     33 468 kbps     50 488 kbps     01:07:57.573    37 862 kbps     01:07:57.615    36 268 kbps     01:07:48.689    174 488 bytes   556 147 bytes   01:03:52.078   
12              1:09:06.640     0:09:12.594     32 945 kbps     52 458 kbps     01:13:25.317    37 190 kbps     01:10:32.478    35 487 kbps     01:16:56.945    171 760 bytes   653 442 bytes   01:13:25.359   
13              1:18:19.234     0:05:12.146     31 850 kbps     42 981 kbps     01:20:21.149    35 482 kbps     01:22:38.203    35 193 kbps     01:22:40.872    166 053 bytes   634 618 bytes   01:20:55.183   
14              1:23:31.381     0:04:03.701     32 325 kbps     46 944 kbps     01:25:47.892    36 843 kbps     01:26:08.329    35 531 kbps     01:27:20.318    168 529 bytes   589 539 bytes   01:27:34.832   
15              1:27:35.082     0:06:32.933     32 753 kbps     49 985 kbps     01:30:16.202    37 349 kbps     01:31:15.052    36 260 kbps     01:30:49.193    170 757 bytes   571 104 bytes   01:30:51.612   
16              1:34:08.015     0:08:35.433     31 679 kbps     49 869 kbps     01:38:24.440    35 777 kbps     01:36:45.841    34 793 kbps     01:36:45.716    165 160 bytes   583 166 bytes   01:38:25.149   
17              1:42:43.448     0:08:27.380     32 921 kbps     44 879 kbps     01:46:01.813    37 006 kbps     01:44:24.925    35 788 kbps     01:46:00.896    171 636 bytes   593 938 bytes   01:44:25.217   
18              1:51:10.828     0:06:17.003     32 964 kbps     52 658 kbps     01:51:57.836    36 398 kbps     01:52:12.267    35 386 kbps     01:52:07.345    171 862 bytes   561 472 bytes   01:55:02.270   
19              1:57:27.832     0:07:56.679     24 470 kbps     45 338 kbps     02:05:18.636    35 449 kbps     02:03:39.036    34 415 kbps     01:58:47.662    127 594 bytes   636 136 bytes   02:05:22.056   

STREAM DIAGNOSTICS:

File            PID             Type            Codec           Language                Seconds                 Bitrate                 Bytes           Packets         
----            ---             ----            -----           --------                --------------          --------------          -------------   -----           
00000.M2TS      4113 (0x1011)   0x1B            AVC                                     7524,434                31 815                  29 924 028 458  162 736 880     
00000.M2TS      4352 (0x1100)   0x81            AC3             rus (Russian)           7524,434                640                     601 963 520     3 527 130       
00000.M2TS      4353 (0x1101)   0x86            DTS-HD MA       rus (Russian)           7524,434                3 733                   3 511 051 964   20 255 871     
00000.M2TS      4354 (0x1102)   0x81            AC3             rus (Russian)           7524,434                448                     421 372 672     2 351 410       
00000.M2TS      4355 (0x1103)   0x81            AC3             ukr (Ukrainian)         7524,434                224                     210 686 336     1 175 705       
00000.M2TS      4356 (0x1104)   0x81            AC3             rus (Russian)           7524,434                448                     421 372 672     2 351 410       
00000.M2TS      4357 (0x1105)   0x86            DTS-HD MA       rus (Russian)           7524,434                3 732                   3 510 421 780   20 252 113     
00000.M2TS      4358 (0x1106)   0x86            DTS-HD MA       rus (Russian)           7524,434                3 736                   3 514 359 316   20 273 497     
00000.M2TS      4359 (0x1107)   0x81            AC3             rus (Russian)           7524,434                448                     421 372 672     2 351 410       
00000.M2TS      4360 (0x1108)   0x86            DTS-HD MA       eng (English)           7524,434                3 880                   3 649 747 944   21 012 364     
00000.M2TS      4361 (0x1109)   0x81            AC3             eng (English)           7524,434                192                     180 589 056     1 175 710       
00000.M2TS      4608 (0x1200)   0x90            PGS             rus (Russian)           7524,434                19                      17 499 284      102 050         
00000.M2TS      4609 (0x1201)   0x90            PGS             rus (Russian)           7524,434                20                      18 901 317      110 993         
00000.M2TS      4610 (0x1202)   0x90            PGS             ukr (Ukrainian)         7524,434                20                      19 068 748      111 896         
00000.M2TS      4611 (0x1203)   0x90            PGS             eng (English)           7524,434                29                      27 211 553      155 933         
00000.M2TS      4612 (0x1204)   0x90            PGS             eng (English)           7524,434                71                      66 807 906      378 710         





Миссия невыполнима: Протокол Фантом / Mission: Impossible - Ghost Protocol

Год выпуска: 2011
Страна: США
Жанр: боевик, триллер, приключения
Продолжительность: 02:12:56
Перевод: Профессиональный (полное дублирование)
Язык субтитров: Русский, Украинский, Английский
Режиссер:
  • Брэд Бёрд

В ролях:
  • Том Круз, Джереми Реннер, Саймон Пегг, Пола Пэттон, Микаэл Нюквист, Владимир Машков, Самули Эдельманн, Иван Шведов, Анил Капур, Леа Сейду

Описание: Специальный агент отряда «Миссия невыполнима» Итан Хант и его коллеги несправедливо обвинены в причастности к взрыву Кремля. Президент инициирует «Протокол Фантом», в результате которого спецподразделение ликвидировано, и Итан остается без какой-либо поддержки. Он намерен очистить свое доброе имя и предотвратить новую атаку, но делать это ему придется вместе с командой коллег, истинных мотивов которых он до конца не знает.

РАЗДАЧА ОТ:
Качество: Blu-Ray Remux
Формат: BDMV
Видео кодек: MPEG-4 AVC
Аудио кодек: DTS-HD MA, Dolby TrueHD
Видео: 1920x1080 at 23.976 fps, ~26574 kbps avg
Аудио#1: Russian: 48 kHz/24-bit, DTS-HD MA 7.1, ~5026.00 kbps avg |Дубляж, Пифагор|
Аудио#2: Ukrainian: 48 kHz/24-bit, DTS-HD MA 7.1, ~4985.00 kbps avg |Дубляж, LeDoyen Studio|
Аудио#3: Russian: 48 kHz/24-bit, DTS-HD MA 7.1, ~5039.00 kbps avg |Одноголосый закадровый, А.Гаврилов|
Аудио#4: Russian: 48 kHz/24-bit, DTS-HD MA 7.1, ~5057.00 kbps avg |Одноголосый закадровый, Ю.Живов|
Аудио#5: Russian: 48 kHz/24-bit, DTS-HD MA 7.1, ~5041.00 kbps avg |Одноголосый закадровый, Ю.Сербин|
Аудио#6: English: 48 kHz/24-bit, Dolby TrueHD 7.1, ~4492.00 kbps avg
Disc Title: MISSION_IMPOSIBLE_4
Disc Size: 61 617 569 720 bytes
Protection: AACS
BD-Java: No
BDInfo: 0.5.8

Notes:

BDINFO HOME:
Cinema Squid
http://www.cinemasquid.com/blu-ray/tools/bdinfo

INCLUDES FORUMS REPORT FOR:
AVS Forum Blu-ray Audio and Video Specifications Thread
http://www.avsforum.com/avs-vb/showthread.php?t=1155731

********************
PLAYLIST: 00000.MPLS
********************

Код:

                                                                                                                Total   Video                                             
Title                                                           Codec   Length  Movie Size      Disc Size       Bitrate Bitrate Main Audio Track                          Secondary Audio Track
-----                                                           ------  ------- --------------  --------------  ------- ------- ------------------                        ---------------------
00000.MPLS                                                      AVC     2:12:56 61 617 438 720  61 617 569 720  61,80   26,57   DTS-HD Master 7.1 5026Kbps (48kHz/24-bit) DTS-HD Master 7.1 5039Kbps (48kHz/24-bit)


Код:



DISC INFO:

Disc Title:     MISSION_IMPOSIBLE_4
Disc Size:      61 617 569 720 bytes
Protection:     AACS
BD-Java:        No
BDInfo:         0.5.8

PLAYLIST REPORT:

Name:                   00000.MPLS
Length:                 2:12:56.301 (h:m:s.ms)
Size:                   61 617 438 720 bytes
Total Bitrate:          61,80 Mbps

VIDEO:

Codec                   Bitrate             Description     
-----                   -------             -----------     
MPEG-4 AVC Video        26574 kbps          1080p / 23,976 fps / 16:9 / High Profile 4.1

AUDIO:

Codec                           Language        Bitrate         Description     
-----                           --------        -------         -----------     
DTS-HD Master Audio             Russian         5026 kbps       7.1 / 48 kHz / 5026 kbps / 24-bit (DTS Core: 5.1 / 48 kHz / 1509 kbps / 24-bit)
DTS-HD Master Audio             Ukrainian       4985 kbps       7.1 / 48 kHz / 4985 kbps / 24-bit (DTS Core: 5.1 / 48 kHz / 1509 kbps / 24-bit)
DTS-HD Master Audio             Russian         5039 kbps       7.1 / 48 kHz / 5039 kbps / 24-bit (DTS Core: 5.1 / 48 kHz / 1509 kbps / 24-bit)
DTS-HD Master Audio             Russian         5057 kbps       7.1 / 48 kHz / 5057 kbps / 24-bit (DTS Core: 5.1 / 48 kHz / 1509 kbps / 24-bit)
DTS-HD Master Audio             Russian         5041 kbps       7.1 / 48 kHz / 5041 kbps / 24-bit (DTS Core: 5.1 / 48 kHz / 1509 kbps / 24-bit)
Dolby TrueHD Audio              English         4492 kbps       7.1 / 48 kHz / 4492 kbps / 24-bit (AC3 Embedded: 5.1 / 48 kHz / 640 kbps / DN -4dB)

SUBTITLES:

Codec                           Language        Bitrate         Description     
-----                           --------        -------         -----------     
Presentation Graphics           Russian         13,918 kbps                     
Presentation Graphics           Ukrainian       14,571 kbps                     
Presentation Graphics           English         14,998 kbps                     

FILES:

Name            Time In         Length          Size            Total Bitrate   
----            -------         ------          ----            -------------   
00000.M2TS      0:00:00.000     2:12:56.301     61 617 438 720  61 801         

CHAPTERS:

Number          Time In         Length          Avg Video Rate  Max 1-Sec Rate  Max 1-Sec Time  Max 5-Sec Rate  Max 5-Sec Time  Max 10Sec Rate  Max 10Sec Time  Avg Frame Size  Max Frame Size  Max Frame Time 
------          -------         ------          --------------  --------------  --------------  --------------  --------------  --------------  --------------  --------------  --------------  -------------- 
1               0:00:00.000     0:04:41.906     26 651 kbps     35 612 kbps     00:00:51.968    31 461 kbps     00:00:47.964    30 999 kbps     00:00:42.959    138 923 bytes   479 941 bytes   00:00:52.927   
2               0:04:41.906     0:06:46.988     26 763 kbps     35 319 kbps     00:10:36.636    31 523 kbps     00:10:32.548    30 814 kbps     00:05:58.399    139 530 bytes   400 808 bytes   00:10:37.303   
3               0:11:28.895     0:08:33.055     26 534 kbps     33 004 kbps     00:13:19.590    31 262 kbps     00:12:30.124    30 843 kbps     00:17:46.315    138 339 bytes   421 697 bytes   00:16:34.535   
4               0:20:01.950     0:07:33.368     27 484 kbps     32 452 kbps     00:20:17.591    31 023 kbps     00:20:24.222    30 845 kbps     00:20:42.866    143 290 bytes   410 272 bytes   00:20:02.951   
5               0:27:35.319     0:05:52.853     26 576 kbps     35 468 kbps     00:30:23.029    31 017 kbps     00:30:12.602    30 835 kbps     00:29:48.620    138 556 bytes   341 028 bytes   00:31:14.581   
6               0:33:28.172     0:04:49.913     27 252 kbps     32 377 kbps     00:35:20.660    30 934 kbps     00:37:19.820    30 784 kbps     00:37:11.062    142 077 bytes   330 575 bytes   00:34:10.715   
7               0:38:18.085     0:06:28.013     26 506 kbps     32 376 kbps     00:44:38.258    30 876 kbps     00:43:34.361    30 185 kbps     00:38:29.765    138 193 bytes   349 636 bytes   00:44:27.873   
8               0:44:46.099     0:06:51.119     30 360 kbps     33 985 kbps     00:46:00.048    31 205 kbps     00:45:56.044    30 902 kbps     00:50:30.485    158 285 bytes   407 894 bytes   00:49:02.147   
9               0:51:37.219     0:04:27.933     27 420 kbps     31 836 kbps     00:54:13.416    30 944 kbps     00:54:09.746    30 819 kbps     00:54:08.119    142 953 bytes   371 420 bytes   00:53:18.403   
10              0:56:05.152     0:06:45.029     26 376 kbps     33 210 kbps     01:01:39.487    30 856 kbps     00:58:39.432    30 777 kbps     01:02:40.173    137 514 bytes   488 008 bytes   01:01:40.488   
11              1:02:50.182     0:06:27.637     26 990 kbps     32 013 kbps     01:08:59.718    30 829 kbps     01:09:04.306    30 613 kbps     01:06:18.766    140 714 bytes   303 660 bytes   01:09:12.398   
12              1:09:17.819     0:07:14.559     27 208 kbps     33 131 kbps     01:15:52.923    30 952 kbps     01:12:49.948    30 737 kbps     01:12:10.784    141 849 bytes   324 250 bytes   01:09:36.130   
13              1:16:32.378     0:05:46.136     25 843 kbps     32 547 kbps     01:17:26.433    30 914 kbps     01:17:22.471    30 787 kbps     01:17:17.424    134 736 bytes   321 086 bytes   01:16:44.641   
14              1:22:18.515     0:08:58.538     27 966 kbps     32 340 kbps     01:24:54.339    31 061 kbps     01:24:48.500    30 899 kbps     01:24:44.370    145 800 bytes   358 583 bytes   01:24:54.380   
15              1:31:17.054     0:04:40.322     24 645 kbps     30 960 kbps     01:32:30.378    30 071 kbps     01:32:26.374    28 861 kbps     01:32:25.456    128 486 bytes   278 094 bytes   01:32:44.475   
16              1:35:57.376     0:06:52.536     27 684 kbps     32 380 kbps     01:37:42.314    31 036 kbps     01:37:49.405    30 884 kbps     01:37:49.280    144 331 bytes   343 533 bytes   01:36:07.219   
17              1:42:49.912     0:08:11.867     27 036 kbps     32 525 kbps     01:44:16.958    31 056 kbps     01:44:14.081    30 807 kbps     01:43:37.628    140 954 bytes   404 394 bytes   01:47:13.468   
18              1:51:01.779     0:07:24.610     26 911 kbps     32 589 kbps     01:53:08.198    31 123 kbps     01:53:04.152    30 932 kbps     01:51:31.142    140 302 bytes   442 745 bytes   01:52:13.643   
19              1:58:26.390     0:07:32.451     27 034 kbps     34 341 kbps     02:05:44.036    31 168 kbps     02:05:40.032    30 830 kbps     01:59:23.864    140 942 bytes   309 970 bytes   01:59:24.115   
20              2:05:58.841     0:06:57.460     17 467 kbps     41 627 kbps     02:12:52.214    30 887 kbps     02:06:15.192    29 382 kbps     02:06:14.566    91 074 bytes    605 488 bytes   02:12:53.090   

STREAM DIAGNOSTICS:

File            PID             Type            Codec           Language                Seconds                 Bitrate                 Bytes           Packets         
----            ---             ----            -----           --------                --------------          --------------          -------------   -----           
00000.M2TS      4113 (0x1011)   0x1B            AVC                                     7976,135                26 574                  26 495 107 402  144 106 707     
00000.M2TS      4352 (0x1100)   0x86            DTS-HD MA       rus (Russian)           7976,135                5 026                   5 010 681 288   28 475 604     
00000.M2TS      4353 (0x1101)   0x86            DTS-HD MA       ukr (Ukrainian)         7976,135                4 985                   4 970 105 016   28 255 270     
00000.M2TS      4354 (0x1102)   0x86            DTS-HD MA       rus (Russian)           7976,135                5 039                   5 024 007 380   28 548 406     
00000.M2TS      4355 (0x1103)   0x86            DTS-HD MA       rus (Russian)           7976,135                5 057                   5 042 299 740   28 646 960     
00000.M2TS      4356 (0x1104)   0x86            DTS-HD MA       rus (Russian)           7976,135                5 041                   5 025 637 640   28 556 973     
00000.M2TS      4357 (0x1105)   0x83            TrueHD          eng (English)           7976,135                5 132                   5 116 462 976   33 769 282     
00000.M2TS      4608 (0x1200)   0x90            PGS             rus (Russian)           7976,135                14                      13 876 323      82 739         
00000.M2TS      4609 (0x1201)   0x90            PGS             ukr (Ukrainian)         7976,135                15                      14 528 181      87 275         
00000.M2TS      4610 (0x1202)   0x90            PGS             eng (English)           7976,135                15                      14 953 388      89 374         





Миссия невыполнима: Племя изгоев / Mission: Impossible - Rogue Nation

Год выпуска: 2015
Страна: США, Гонконг, Китай
Жанр: боевик, триллер, приключения
Продолжительность: 02:11:33
Перевод: Профессиональный (полное дублирование)
Язык субтитров: Русский (Forced, iTunes), Русский (iTunes), Английский, Английский (SDH)
Режиссер:
  • Кристофер МакКуорри

В ролях:
  • Том Круз, Ребекка Фергюсон, Саймон Пегг, Джереми Реннер, Винг Реймз, Шон Харрис, Алек Болдуин, Саймон МакБерни, Йенс Хультен, Том Холландер

Описание: Когда ОМН распускают, и Итан Хант остается не у дел, его команда неожиданно сталкивается с разветвленной международной сетью высокопрофессиональных спецагентов — Синдикатом. Это «племя изгоев» одержимо идеей установления нового мирового порядка и планирует серию разрушительных терактов. Итан и компания объединяются с дискредитированным британским агентом Ильзой Фауст и приступают к своей самой невыполнимой миссии...

РАЗДАЧА ОТ:
Качество: Blu-Ray Remux
Формат: BDMV
Видео кодек: MPEG-4 AVC
Аудио кодек: Dolby Atmos, AC3
Видео: 1920x1080 at 23.976 fps, ~24323 kbps avg
Aудио#1: Russian: 48 kHz, AC3, 3/2 (L,C,R,l,r) + LFE ch, ~384.00 kbps avg |Дубляж, iTunes Russia|
Aудио#2: English: 48 kHz/24-bit, Dolby Atmos 7.1, ~4895.00 kbps avg
Aудио#3: English: 48 kHz, AC3, 3/2 (L,C,R,l,r) + LFE ch, ~640.00 kbps avg |Descriptive|
Aудио#4: English: 48 kHz, AC3, 2/0 (L,R) ch, ~224.00 kbps avg |Audio Commentary by Tom Cruise and director/screenwriter Christopher|
Disc Title: MISSION_IMPOSIBLE_5
Disc Size: 33 426 560 116 bytes
Protection: AACS
BD-Java: No
BDInfo: 0.5.8

Notes:

BDINFO HOME:
Cinema Squid
http://www.cinemasquid.com/blu-ray/tools/bdinfo

INCLUDES FORUMS REPORT FOR:
AVS Forum Blu-ray Audio and Video Specifications Thread
http://www.avsforum.com/avs-vb/showthread.php?t=1155731

********************
PLAYLIST: 00000.MPLS
********************

Код:

                                                                                                                Total   Video                                             
Title                                                           Codec   Length  Movie Size      Disc Size       Bitrate Bitrate Main Audio Track                          Secondary Audio Track
-----                                                           ------  ------- --------------  --------------  ------- ------- ------------------                        ---------------------
00000.MPLS                                                      AVC     2:11:33 33 426 444 288  33 426 560 116  33,88   24,32   DD AC3 5.1 384Kbps                       


Код:



DISC INFO:

Disc Title:     MISSION_IMPOSIBLE_5
Disc Size:      33 426 560 116 bytes
Protection:     AACS
BD-Java:        No
BDInfo:         0.5.8

PLAYLIST REPORT:

Name:                   00000.MPLS
Length:                 2:11:33.760 (h:m:s.ms)
Size:                   33 426 444 288 bytes
Total Bitrate:          33,88 Mbps

VIDEO:

Codec                   Bitrate             Description     
-----                   -------             -----------     
MPEG-4 AVC Video        24323 kbps          1080p / 23,976 fps / 16:9 / High Profile 4.1

AUDIO:

Codec                           Language        Bitrate         Description     
-----                           --------        -------         -----------     
Dolby Digital Audio             Russian         384 kbps        5.1 / 48 kHz / 384 kbps
Dolby TrueHD Audio              English         4895 kbps       7.1 / 48 kHz / 4895 kbps / 24-bit (AC3 Embedded: 5.1-EX / 48 kHz / 640 kbps / DN -4dB)
Dolby Digital Audio             English         640 kbps        5.1 / 48 kHz / 640 kbps / DN -4dB
Dolby Digital Audio             English         224 kbps        2.0 / 48 kHz / 224 kbps / DN -4dB

SUBTITLES:

Codec                           Language        Bitrate         Description     
-----                           --------        -------         -----------     
Presentation Graphics           Russian         1,400 kbps                     
Presentation Graphics           Russian         42,059 kbps                     
Presentation Graphics           English         25,229 kbps                     
Presentation Graphics           English         28,428 kbps                     

FILES:

Name            Time In         Length          Size            Total Bitrate   
----            -------         ------          ----            -------------   
00000.M2TS      0:00:00.000     2:11:33.760     33 426 444 288  33 876         

CHAPTERS:

Number          Time In         Length          Avg Video Rate  Max 1-Sec Rate  Max 1-Sec Time  Max 5-Sec Rate  Max 5-Sec Time  Max 10Sec Rate  Max 10Sec Time  Avg Frame Size  Max Frame Size  Max Frame Time 
------          -------         ------          --------------  --------------  --------------  --------------  --------------  --------------  --------------  --------------  --------------  -------------- 
1               0:00:00.000     0:09:53.091     26 234 kbps     37 516 kbps     00:05:55.355    30 921 kbps     00:00:16.307    30 256 kbps     00:00:11.302    136 761 bytes   469 036 bytes   00:01:02.562   
2               0:09:53.091     0:10:52.610     24 208 kbps     31 868 kbps     00:18:00.329    29 995 kbps     00:20:40.697    29 854 kbps     00:20:03.368    126 210 bytes   353 783 bytes   00:09:56.095   
3               0:20:45.701     0:04:46.369     25 496 kbps     32 108 kbps     00:20:59.925    29 687 kbps     00:23:55.392    28 864 kbps     00:25:11.635    132 926 bytes   331 601 bytes   00:20:50.707   
4               0:25:32.071     0:06:28.596     24 441 kbps     31 860 kbps     00:25:47.462    29 992 kbps     00:27:15.050    29 315 kbps     00:25:38.662    127 423 bytes   431 094 bytes   00:26:05.397   
5               0:32:00.667     0:08:02.775     24 481 kbps     31 699 kbps     00:34:47.168    29 900 kbps     00:32:41.125    29 666 kbps     00:32:36.371    127 633 bytes   288 420 bytes   00:33:03.981   
6               0:40:03.442     0:09:32.112     25 254 kbps     33 217 kbps     00:42:10.402    30 352 kbps     00:42:06.440    29 773 kbps     00:48:46.214    131 664 bytes   367 943 bytes   00:40:11.909   
7               0:49:35.554     0:11:25.603     24 901 kbps     31 589 kbps     00:57:39.622    30 038 kbps     00:57:36.452    29 838 kbps     00:52:11.711    129 822 bytes   386 248 bytes   00:57:41.416   
8               1:01:01.157     0:08:50.529     24 832 kbps     32 729 kbps     01:08:14.840    29 941 kbps     01:08:48.582    29 304 kbps     01:04:45.631    129 463 bytes   374 657 bytes   01:01:46.661   
9               1:09:51.686     0:10:29.170     24 987 kbps     31 479 kbps     01:16:24.663    29 965 kbps     01:20:15.852    29 232 kbps     01:20:10.847    130 269 bytes   417 233 bytes   01:13:57.057   
10              1:20:20.856     0:09:08.465     24 512 kbps     31 529 kbps     01:27:58.606    30 071 kbps     01:27:54.602    29 909 kbps     01:27:49.597    127 796 bytes   490 946 bytes   01:27:48.888   
11              1:29:29.322     0:09:03.501     25 823 kbps     31 975 kbps     01:29:34.994    30 006 kbps     01:29:31.032    29 875 kbps     01:35:20.047    134 630 bytes   316 898 bytes   01:29:30.323   
12              1:38:32.823     0:09:46.585     24 104 kbps     32 182 kbps     01:47:18.682    30 140 kbps     01:47:32.946    29 704 kbps     01:47:31.611    125 667 bytes   376 814 bytes   01:48:19.409   
13              1:48:19.408     0:08:54.534     25 207 kbps     32 555 kbps     01:56:58.886    30 351 kbps     01:56:54.924    29 732 kbps     01:51:25.845    131 421 bytes   393 492 bytes   01:48:24.247   
14              1:57:13.943     0:05:48.764     25 828 kbps     31 367 kbps     01:59:30.496    29 904 kbps     02:01:19.188    29 742 kbps     02:01:38.708    134 654 bytes   278 125 bytes   02:02:27.214   
15              2:03:02.707     0:08:31.053     14 697 kbps     41 568 kbps     02:11:30.841    31 108 kbps     02:11:27.004    29 758 kbps     02:05:05.205    76 637 bytes    617 868 bytes   02:11:31.425   

STREAM DIAGNOSTICS:

File            PID             Type            Codec           Language                Seconds                 Bitrate                 Bytes           Packets         
----            ---             ----            -----           --------                --------------          --------------          -------------   -----           
00000.M2TS      4113 (0x1011)   0x1B            AVC                                     7893,594                24 324                  24 000 256 146  130 546 388     
00000.M2TS      4352 (0x1100)   0x81            AC3             rus (Russian)           7893,594                384                     378 906 624     2 220 156       
00000.M2TS      4353 (0x1101)   0x83            TrueHD          eng (English)           7893,594                5 535                   5 461 864 722   35 555 853     
00000.M2TS      4354 (0x1102)   0x81            AC3             eng (English)           7893,594                640                     631 503 360     3 700 215       
00000.M2TS      4355 (0x1103)   0x81            AC3             eng (English)           7893,594                224                     221 026 176     1 233 405       
00000.M2TS      4608 (0x1200)   0x90            PGS             rus (Russian)           7893,594                1                       1 381 302       7 838           
00000.M2TS      4609 (0x1201)   0x90            PGS             rus (Russian)           7893,594                42                      41 500 113      233 570         
00000.M2TS      4610 (0x1202)   0x90            PGS             eng (English)           7893,594                25                      24 894 010      143 753         
00000.M2TS      4611 (0x1203)   0x90            PGS             eng (English)           7893,594                28                      28 050 566      162 347         


info [Профиль]  [ЛС] 
Показать сообщения:    
Ответить на тему

Текущее время: 11-Дек 00:31

Часовой пояс: GMT + 4



Вы не можете начинать темы
Вы не можете отвечать на сообщения
Вы не можете редактировать свои сообщения
Вы не можете удалять свои сообщения
Вы не можете голосовать в опросах
Вы не можете прикреплять файлы к сообщениям
Вы не можете скачивать файлы