Ошибка

Новый завет владыки тьмы, моей сестры Взрыв / Shinmai Maou no Testament Burst (TV-2) [1-10 из 10] [2015] [комедия, этти, мистика, романтика, школа] [BDRip1080p] [Любительский]

Ответить на тему
 
Автор Сообщение

Chel90RUS

Пол: Пол:Муж

Стаж: 5 лет 5 месяцев

Сообщений: 413

Россия
Рейтинг

post 14-Дек-2015 03:34 0[+]

[Цитировать] 

pic="http://static2.anidub.com/tracker/poster/d9c668c4be.jpg"
Новый завет владыки тьмы, моей сестры: Взрыв
Shinmai Maou no Testament Burst / The Testament of Sister New Devil: Burst / 新妹魔王の契約者 BURST

Год выпуска: 2015
Жанр: Комедия, этти, мистика, романтика, школа
Страна: Япония
Тип: HDTV
Продолжительность: 10 серий ~ 25 мин
Дата выпуска: c 10.10.2015 по 12.12.2015
Режиссер: Сайто Хисаси
Автор оригинала / Сценарист: Уэсу Тэцуто
Студия: TMS
Озвучено: Ancord, Nika Lenina
Перевод: FooBoo
Тайминг и работа со звуком: Felix
Формат файла: MKV
Аудио: Dolby AC3 48000Hz stereo 192kbps [A: ac3, 48000 Hz, stereo, 192 kb/s [default]]
Видео: MPEG4 Video (H264) 1920x1080 23.976fps [V: 1080p 10bit BD [jpn] (h264 high 10 L4.2, yuv420p10le, 1920x1080) [default]]

General
Unique ID : 171753215450072298154397597711184871061 (0x813677503BA6F0BF9A95A325B316BE95)
Complete name : \[AniDub]_Shinmai_Maou_no_Testament_BURST_[01]_[BDRip_1920x1080_x264_Ac3]_[Ancord_NikaLenina].mkv
Format : Matroska
Format version : Version 4 / Version 2
File size : 904 MiB
Duration : 25mn 41s
Overall bit rate : 4 920 Kbps
Movie name :
Encoded date : UTC 2016-06-04 16:33:37
Writing application : mkvmerge v9.2.0 ('Photograph') 32bit
Writing library : libebml v1.3.3 + libmatroska v1.4.4
Attachements : Amaranth.otf / Amaranth-Italic.otf / CANDY-ROUND-BTN-BOLD.TTF / Comfortaa-Bold.ttf / FORGOTTENFUTURISTRG-BOLD.TTF / IwaOMinPro-Bd-Fate_2.ttf / NozakiDialogue-Bold.otf / NozakiDialogue-BoldItalic.otf / nyala.TTF / SNsanafonkakuP.ttf / VEGUR-B 0.602.OTF / Comfortaa-Regular_0.ttf
DURATION : 00:25:41.216000000
NUMBER_OF_FRAMES : 48163
NUMBER_OF_BYTES : 36989184
_STATISTICS_WRITING_APP : mkvmerge v9.2.0 ('Photograph') 32bit
_STATISTICS_WRITING_DATE_UTC : 2016-06-04 16:33:37
_STATISTICS_TAGS : BPS DURATION NUMBER_OF_FRAMES NUMBER_OF_BYTES

Video
ID : 1
Format : AVC
Format/Info : Advanced Video Codec
Format profile : High 10@L4.2
Format settings, CABAC : Yes
Format settings, ReFrames : 4 frames
Codec ID : V_MPEG4/ISO/AVC
Duration : 25mn 41s
Bit rate : 4 630 Kbps
Width : 1 920 pixels
Height : 1 080 pixels
Display aspect ratio : 16:9
Frame rate mode : Constant
Frame rate : 23.976 fps
Color space : YUV
Chroma subsampling : 4:2:0
Bit depth : 10 bits
Scan type : Progressive
Bits/(Pixel*Frame) : 0.093
Stream size : 851 MiB (94%)
Title : 1080p 10bit BD
Writing library : x264 core 148 r2638 7599210
Encoding settings : cabac=1 / ref=4 / deblock=1:1:1 / analyse=0x3:0x113 / me=umh / subme=8 / psy=1 / psy_rd=0.40:0.00 / mixed_ref=1 / me_range=16 / chroma_me=1 / trellis=1 / 8x8dct=1 / cqm=0 / deadzone=21,11 / fast_pskip=1 / chroma_qp_offset=-2 / threads=3 / lookahead_threads=1 / sliced_threads=0 / nr=0 / decimate=1 / interlaced=0 / bluray_compat=0 / constrained_intra=0 / bframes=5 / b_pyramid=2 / b_adapt=2 / b_bias=0 / direct=3 / weightb=1 / open_gop=0 / weightp=2 / keyint=250 / keyint_min=23 / scenecut=40 / intra_refresh=0 / rc_lookahead=50 / rc=crf / mbtree=1 / crf=16.5 / qcomp=0.60 / qpmin=0 / qpmax=81 / qpstep=4 / ip_ratio=1.40 / aq=1:0.60
Language : Japanese
Default : Yes
Forced : No
DURATION : 00:25:41.248000000
NUMBER_OF_FRAMES : 36953
NUMBER_OF_BYTES : 903274352
_STATISTICS_WRITING_APP : mkvmerge v9.2.0 ('Photograph') 32bit
_STATISTICS_WRITING_DATE_UTC : 2016-06-04 16:33:37
_STATISTICS_TAGS : BPS DURATION NUMBER_OF_FRAMES NUMBER_OF_BYTES

Audio
ID : 2
Format : AC-3
Format/Info : Audio Coding 3
Mode extension : CM (complete main)
Format settings, Endianness : Big
Codec ID : A_AC3
Duration : 25mn 41s
Bit rate mode : Constant
Bit rate : 192 Kbps
Channel(s) : 2 channels
Channel positions : Front: L R
Sampling rate : 48.0 KHz
Compression mode : Lossy
Stream size : 35.3 MiB (4%)
Default : Yes
Forced : No


Описание:Золгир повержен. Басара, Юки, Мио и Мария продолжают свою временно мирную жизнь.
Но тот, кто стоит за Золгиром все еще жив. И новый владыка тьмы Леонард обращает на них свое внимание.
Возвращаются мама Марии и Зэст.
Грядет новая битва...
info [Профиль]  [ЛС] 

Chel90RUS

Пол: Пол:Муж

Стаж: 5 лет 5 месяцев

Сообщений: 413

Россия
Рейтинг

post 05-Июн-2016 02:36 (спустя 5 месяцев 21 день) [-]0[+]

[Цитировать] 

Качество теперь BDRip1080p
Также хочу сразу сказать две вещи дабы здесь не возникало тупых вопросов:

1. Здесь НЕТУ ЦЕНЗУРЫ (в наше время всё же есть нубы не знающие элементарных вещей касательно релизов в BD)
2. Дополнительные сцены здесь НЕ ОЗВУЧЕНЫ. Учитывая то, что в них происходит, здесь и без перевода будет всё ясно
©Chimera

_________________
info [Профиль]  [ЛС] 

luchdobra

Пол: Пол:Муж

Стаж: 2 года 10 месяцев

Сообщений: 19

Россия
Рейтинг

post 05-Июн-2016 11:20 (спустя 8 часов) [-]0[+]

[Цитировать] 

Спасибо за релиз.
info [Профиль]  [ЛС] 

xetrin

Пол: Пол:Муж

Стаж: 4 года 7 месяцев

Сообщений: 56

Россия
Рейтинг

post 05-Июн-2016 13:34 (спустя 2 часа 13 минут) [-]0[+]

[Цитировать] 

Chel90RUS писал(а):

Качество теперь BDRip1080p
Также хочу сразу сказать две вещи дабы здесь не возникало тупых вопросов:

1. Здесь НЕТУ ЦЕНЗУРЫ (в наше время всё же есть нубы не знающие элементарных вещей касательно релизов в BD)
2. Дополнительные сцены здесь НЕ ОЗВУЧЕНЫ. Учитывая то, что в них происходит, здесь и без перевода будет всё ясно
Хотя бы копирайт поставил Химерыча))
info [Профиль]  [ЛС] 
Показать сообщения:    
Ответить на тему

Текущее время: 03-Дек 13:46

Часовой пояс: GMT + 4



Вы не можете начинать темы
Вы не можете отвечать на сообщения
Вы не можете редактировать свои сообщения
Вы не можете удалять свои сообщения
Вы не можете голосовать в опросах
Вы не можете прикреплять файлы к сообщениям
Вы не можете скачивать файлы