Ошибка

До окончания фрилича осталось:


Аладдин / Aladdin / Сезоны: 1 / Серии: 01-78 из 86 (Алан Заслов, Боб Хечхок, Тоби Шелтон / Alan Zaslove, Bob Hathcock, Toby Shelton) [1994-1995, Приключения, юмор, DVB] Dub (СТС)

Ответить на тему
 
Автор Сообщение

DARKAN

Пол: Пол:Муж

Стаж: 3 года 4 месяца

Сообщений: 56

Россия
Рейтинг

post 03-Дек-2015 19:46 1[+]

[Цитировать] 

Аладдин

Оригинальное название: Aladdin
Года выпуска: 1994-1995
Страна: США
Жанр: Приключения, юмор
Серии: 01-78 из 86
Сезоны: 1
Продолжительность: 00:21:46
Перевод: Профессиональный (полное дублирование)
Режиссёры:
  • Алан Заслов, Боб Хечхок, Тоби Шелтон / Alan Zaslove, Bob Hathсoсk, Toby Shelton
Роли озвучивали:
  • Аладдин – Андрей Бархударов (1996 год), Андрей Кузнецов (2004 год);
  • Жасмин – Инна Тимофеева и Жанна Никонова (1996-1997 гг.), Евгения Игумнова (2004 год);
  • Султан – Виктор Рождественский (1996 год), Вадим Яковлев (2004 год);
  • Джин – Алексей Иващенко (1996 год), Валерий Соловьёв (2004 год);
  • Яго – Борис Быстров (1996 год), Андрей Машков (2004 год);
  • Расул – Александр Рыжков (1996 год), Андрей Шамин (2004 год);
  • Садира – Елена Борзунова (1996 год);
  • Мозенрат – Сергей Чурбаков (1996 год);
  • Абис-Мал – Юрий Саранцев (1996 год);
  • Харуд Хази Бин – Виктор Незнанов(1996 год);
  • Механикус – Владимир Ерёмин (1996 год);
  • Мираж – Марина Тарасова (1996 год);
  • Амин Домула – Александр Воеводин(1996 год);
  • Аям Агул – Алексей Золотницкий (1996 год);
  • Нефир – Александр Рахленко (1996 год);
  • Азиз – Всеволод Кузнецов (1996 год);
  • Малчо – Виктор Бохон (1996 год);
  • Минос – Всеволод Абдулов (1996 год);
  • Фасир – Всеволод Кузнецов (1996 год).

Описание:
Аладдин - американский приключенческий мультсериал, созданный студией Уолта Диснея в 1994 и 1995 годах. Основан на двух полнометражных мультфильмах "Аладдин" и "Аладдин: Возвращение Джафара", оканчивается третьей полнометражкой "Аладдин и Король разбойников". Мультсериал повествует о приключениях Аладдина и его друзей в Аграбе и за её пределами, о противостоянии героев силам Зла. В сериале появляется множество новых постоянных персонажей и злодеев.
Доп. информация:
Огромное спасибо Саше Эндику за оказание помощи в ведении записи, а также отдельное спасибо utas'у за предоставление 78-й серии за прошлый эфир, т.к. в последнем (на данный момент) эфире вместо 78-й серии показали повтор 69-й серии.
Качество: DVB (СТС AVC)
Формат: TS
Видео: AVC, 720x576, 25.000 fps, 3.109 Kbps
Аудио: MP2, 48.0 KHz, 2 ch, 256 Kbps

Качество: DVB (СТС 1)
Формат: MPG
Видео: MPEG2, 720x576, 25.000 fps, 2.930 Kbps
Аудио: MP2, 48.0 KHz, 2 ch, 192 Kbps

Качество: DVB (СТС 2)
Формат: MPG
Видео: MPEG2, 720x576, 25.000 fps, 5.815 Kbps
Аудио: MP2, 48.0 KHz, 2 ch, 256 Kbps
Сезон 1:
01. Air Feather Friends
02. Bad Mood Rising
03. To Cure A Thief
04. Do The Rat Thing
05. Never Say Nefir
06. Getting The Bugs Out
07. The Vapor Chase
08. Garden Of Evil
09. Much Abu About Something
10. My Fair Aladdin
11. Raiders Of The Lost Shark
12. Web Of Fear
13. Mudder’s Day
14. Plunder The Sea
15. Strike Up The Sand
16. The Prophet Motive
17. I Never Mechanism I Didn’t Like
18. Fowl Weather
19. Forget Me Lots
20. Scare Necessities
21. SandSwitch
22. Sneeze The Day
23. Lost And Founded
24. Moonlight Madness
25. The Flawed Couple
26. Rain Of Terror
27. Dune Quixote
28. That Stinking Feeling
29. The Day The Bird Stood Still
30. Of Ice And Men
31. Some Enchanted Genie
32. Hero With A Thousand Feathers
33. Opposites Detract
34. Caught By The Tale
35. Elemental, My Dear Jasmine
36. Beast Or Famine
37. Smolder And Wiser
38. The Game
39. Poor Iago
40. The Spice Is Right
41. The Animal Kingdom
42. Power To The Parrot
43. The Sands Of Fate
44. The Citadel
45. Snowman Is An Island
46. The Secret Of Dagger Rock
47. In The Heat Of The Fright
48. Witch Way Did She Go?
49. The Seven Faces Of Genie
50. The Wind Jackals Of Mozenrath
51. The Lost Ones
52. Mission: Imp Possible
53. Stinker belle
54. Sea No Evil
55. Shadow Of A Doubt
56. Smells Like Trouble
57. The Way We War
58. Night Of The Living Mud
59. Egg-stra Protection
60. A Sultan Worth His Salt
61. Heads, You Lose
62. The Love Bug
63. When Chaos Comes Calling
64. Genie Hunt
65. A Clockwork Hero
66. Armored And Dangerous
67. Eye Of The Beholder
68. Shark Treatment
69. Love At First Sprite
70. Vocal Hero
71. The Lost City Of The Sun
72. As The Netherworld Turns
73. Black Sand
74. Seems Like Old Crimes (1)
75. Seems Like Old Crimes (2)
76. From Hippsodeth, With Love
77. Destiny On Fire
78. The Return Of Malcho
Внимание! Раздача ведётся путём добавления новых серий; при каждом добавлении создаётся новый торрент. Чтобы начать докачку новой серии, пользователям необходимо сделать следующее:
(1) остановить скачивание,
(2) удалить старый торрент у себя из клиента (старые серии удалять не надо),
(3) скачать новый торрент и запустить его у себя в клиенте вместо старого, при этом указать клиенту путь в старую папку куда и должно происходить скачивание новых серий.

Ваш клиент при этом должен произвести хеширование (проверку) старой папки (если не производит сам - помогите ему сделать это), и будет докачивать только те серии которых у вас ещё нет. Старые серии при этом не удаляются, а продолжают раздаваться!

Eсли вы уже удалили старые серии, то предотвратить повторную закачку старых серий можно, отжав галочку в соответствующих местах при запуске нового торрента. По возможности, желательно не удалять старые серии как можно дольше чтобы релизёр не столько продолжал раздавать старые серии, а смог сконцентрироваться на новых.
 
General
ID : 1 (0x1)
Complete name : D:\IPTV\Aladdin\Aladdin.s01.e03.ts
Format : MPEG-TS
File size : 552 MiB
Duration : 21mn 46s
Overall bit rate mode : Variable
Overall bit rate : 3 542 Kbps

Video
ID : 67 (0x43)
Menu ID : 1 (0x1)
Format : AVC
Format/Info : Advanced Video Codec
Format profile : High@L3.0
Format settings, CABAC : Yes
Format settings, ReFrames : 3 frames
Codec ID : 27
Duration : 21mn 46s
Bit rate : 3 109 Kbps
Width : 720 pixels
Height : 576 pixels
Display aspect ratio : 4:3
Frame rate : 25.000 fps
Standard : Component
Color space : YUV
Chroma subsampling : 4:2:0
Bit depth : 8 bits
Scan type : Interlaced
Scan order : Top Field First
Bits/(Pixel*Frame) : 0.300
Stream size : 484 MiB (88%)
Color primaries : BT.601 PAL
Transfer characteristics : BT.470 System B, BT.470 System G
Matrix coefficients : BT.601
Color range : Limited

Audio
ID : 68 (0x44)
Menu ID : 1 (0x1)
Format : MPEG Audio
Format version : Version 1
Format profile : Layer 2
Codec ID : 3
Duration : 21mn 46s
Bit rate mode : Constant
Bit rate : 256 Kbps
Channel(s) : 2 channels
Sampling rate : 48.0 KHz
Compression mode : Lossy
Stream size : 39.9 MiB (7%)
Language : English
General
Complete name : D:\IPTV\Aladdin\Aladdin.s01.e24.mpg
Format : MPEG-PS
File size : 497 MiB
Duration : 21mn 48s
Overall bit rate mode : Variable
Overall bit rate : 3 185 Kbps

Video
ID : 224 (0xE0)
Format : MPEG Video
Format version : Version 2
Format profile : Main@Main
Format settings, BVOP : Yes
Format settings, Matrix : Custom
Format settings, GOP : Variable
Format settings, picture st : Frame
Duration : 21mn 48s
Bit rate mode : Variable
Bit rate : 2 930 Kbps
Maximum bit rate : 15.0 Mbps
Width : 720 pixels
Height : 576 pixels
Display aspect ratio : 4:3
Frame rate : 25.000 fps
Standard : PAL
Color space : YUV
Chroma subsampling : 4:2:0
Bit depth : 8 bits
Scan type : Interlaced
Scan order : Top Field First
Compression mode : Lossy
Bits/(Pixel*Frame) : 0.283
Time code of first frame : 00:00:00:00
Time code source : Group of pictures header
GOP, Open/Closed : Open
Stream size : 457 MiB (92%)
GOP, Open/Closed of first f : Closed

Audio
ID : 192 (0xC0)
Format : MPEG Audio
Format version : Version 1
Format profile : Layer 2
Duration : 21mn 48s
Bit rate mode : Constant
Bit rate : 192 Kbps
Channel(s) : 2 channels
Sampling rate : 48.0 KHz
Compression mode : Lossy
Delay relative to video : 2ms
Stream size : 29.9 MiB (6%)
General
Complete name : D:\IPTV\Aladdin\Aladdin.s01.e78.mpg
Format : MPEG-PS
File size : 964 MiB
Duration : 21mn 45s
Overall bit rate mode : Variable
Overall bit rate : 6 194 Kbps

Video
ID : 224 (0xE0)
Format : MPEG Video
Format version : Version 2
Format profile : Main@Main
Format settings, BVOP : Yes
Format settings, Matrix : Custom
Format settings, GOP : M=2, N=12
Format settings, picture st : Frame
Duration : 21mn 45s
Bit rate mode : Variable
Bit rate : 5 815 Kbps
Maximum bit rate : 15.0 Mbps
Width : 720 pixels
Height : 576 pixels
Display aspect ratio : 4:3
Frame rate : 25.000 fps
Standard : PAL
Color space : YUV
Chroma subsampling : 4:2:0
Bit depth : 8 bits
Scan type : Interlaced
Scan order : Top Field First
Compression mode : Lossy
Bits/(Pixel*Frame) : 0.561
Time code of first frame : 00:00:00:00
Time code source : Group of pictures header
GOP, Open/Closed : Open
GOP, Open/Closed of first f : Closed
Stream size : 905 MiB (94%)

Audio
ID : 192 (0xC0)
Format : MPEG Audio
Format version : Version 1
Format profile : Layer 2
Mode : Dual mono
Duration : 21mn 45s
Bit rate mode : Constant
Bit rate : 256 Kbps
Channel(s) : 2 channels
Sampling rate : 48.0 KHz
Compression mode : Lossy
Stream size : 39.8 MiB (4%)
info [Профиль]  [ЛС] 

ps1hoGUN

Пол: Пол:Муж

Стаж: 6 лет 2 месяца

Сообщений: 27

Россия
Рейтинг

post 03-Дек-2015 20:56 (спустя 1 час 10 минут) [-]7[+]

[Цитировать] 

Арабскааая нооочь, волшебный восток..
info [Профиль]  [ЛС] 

Raystlin

Пол: Пол:Муж

Стаж: 2 года

Сообщений: 8

СССР
Рейтинг

post 03-Дек-2015 21:38 (спустя 42 минуты) [-]7[+]

[Цитировать] 

Здесь чары и месть, отвага и честь, дворцы и песооооок...
info [Профиль]  [ЛС] 

echouxe

Пол: Пол:Муж

Стаж: 2 года 6 месяцев

Сообщений: 240

Предупреждений: 2

Германия
Рейтинг

post 03-Дек-2015 21:48 (спустя 9 минут) [-]0[+]

[Цитировать] 

А почему запись-то с ТВ? На ДВД разве не выпускали?

_________________
With our dead society \ We will, we will fail
No big deals in interests \ Same old, same old tale
Only hell is on the rise \ Gets on civilized
Woman first and Satan first \ Woman, Satan come first
Woman first and Satan first
The woman and Satan they come first
info [Профиль]  [ЛС] 

Raystlin

Пол: Пол:Муж

Стаж: 2 года

Сообщений: 8

СССР
Рейтинг

post 03-Дек-2015 22:01 (спустя 13 минут) [-]1[+]

[Цитировать] 

echouxe, тыц сезона как бы 3, и информации о выходе всего сериала на DVD мне на глаза не попадалось.
info [Профиль]  [ЛС] 

maikl7

Пол: Пол:Муж

Стаж: 4 года 5 месяцев

Сообщений: 132

Россия
Рейтинг

post 04-Дек-2015 22:54 (спустя 1 день) [-]0[+]

[Цитировать] 

Двадцать лет прошло с выхода мультфильма, а до сих пор не появилось 8 последних серий Улыбаюсь
info [Профиль]  [ЛС] 

Raystlin

Пол: Пол:Муж

Стаж: 2 года

Сообщений: 8

СССР
Рейтинг

post 05-Дек-2015 01:49 (спустя 2 часа 54 минуты) [-]0[+]

[Цитировать] 

maikl7, да есть они давно у меня на харде валяются в разрешении 640х480. Здесь же господа рипают их с канала СТС в более "вкусном" разрешении по мере выхода серий в эфир.
info [Профиль]  [ЛС] 

maikl7

Пол: Пол:Муж

Стаж: 4 года 5 месяцев

Сообщений: 132

Россия
Рейтинг

post 06-Дек-2015 11:55 (спустя 1 день 10 часов) [-]0[+]

[Цитировать] 

Raystlin
Не думаю, что смог бы увидеть разницу между 640х480 и 720х576 Улыбаюсь
info [Профиль]  [ЛС] 

Raystlin

Пол: Пол:Муж

Стаж: 2 года

Сообщений: 8

СССР
Рейтинг

post 06-Дек-2015 15:35 (спустя 3 часа) [-]0[+]

[Цитировать] 

maikl7, специально для нетерпячих 3 сезон (именно он отсутствует в раздаче) и список серий из раздачи в соответствии с вот этим - он мне показался более логичным, нежели предыдущий.
info [Профиль]  [ЛС] 
Показать сообщения:    
Ответить на тему

Текущее время: 10-Дек 09:06

Часовой пояс: GMT + 4



Вы не можете начинать темы
Вы не можете отвечать на сообщения
Вы не можете редактировать свои сообщения
Вы не можете удалять свои сообщения
Вы не можете голосовать в опросах
Вы не можете прикреплять файлы к сообщениям
Вы не можете скачивать файлы