Ошибка

Космическая Скратастрофа / Cosmic Scrat-tastrophe (Майк Тёрмайер) [2015, мультфильм, короткометражка, комедия, DCPRip 720p] Dub от R.G. TNClub

Ответить на тему
 
Автор Сообщение

R.G. TNClub

Стаж: 2 года 3 месяца

Сообщений: 515

Рейтинг

post 22-Ноя-2015 11:09 1[+]

[Цитировать] 

Космическая Скратастрофа / Cosmic Scrat-tastrophe

Страна: США
Жанр: мультфильм, короткометражка, комедия
Год выпуска: 2015
Продолжительность: 00:05:25
Перевод: Профессиональный (дублированный) [Лицензия] - русский
Субтитры: --
Оригинальная дорожка: --
Главы: --

Режиссер: Майк Тёрмайер
Описание: На этот раз Скарт — любитель орехов, превзошел сам себя. Пытаясь спрятать свою находку, он активирует космическую тарелку, замерзшую во льдах, и отправляется в космос.

Качество видео: Dcprip 720p
Рип от L!
Формат видео: MKV
Видео: MPEG-4 AVC Video ~4.2 Mbps 1280 x 536 / 24,000 fps / 2.40:1 / High Profile 4.1
Аудио: Russian: 48 kHz, AC3 Dolby Digital, 3/2 (L,C,R,l,r) + LFE ch, ~640 kbps

Раздача от &
Cosmic.Scrat-tastrophe.2015.DCPRip.5.1.Rus.Dub.HDClub
Уникальный идентификатор : 247808434844478949954739351196872216254 (0xBA6E2B23B99F252A884F4F9F1D9C0EBE)
Полное имя : D:\L#TNClub\Cosmic.Scrat-tastrophe.2015.DCPRip.720p.DD5.1.x264-TNClub.mkv
Формат : Matroska
Версия формата : Version 4 / Version 2
Размер файла : 188 Мбайт
Продолжительность : 5 м. 20 с.
Общий поток : 4926 Кбит/сек
Название фильма : Cosmic.Scrat-tastrophe.2015.DCPRip.720p.DD5.1.x264-TNClub
Дата кодирования : UTC 2015-11-29 06:39:46
Программа кодирования : mkvmerge v8.3.0 ('Over the Horizon') 32bit
Библиотека кодирования : libebml v1.3.1 + libmatroska v1.4.2
Attachements : cover.png
DURATION : 00:05:20.736000000
NUMBER_OF_FRAMES : 10023
NUMBER_OF_BYTES : 25658880
_STATISTICS_WRITING_APP : mkvmerge v8.3.0 ('Over the Horizon') 32bit
_STATISTICS_WRITING_DATE_UTC : 2015-11-29 06:39:46
_STATISTICS_TAGS : BPS DURATION NUMBER_OF_FRAMES NUMBER_OF_BYTES

Видео
Идентификатор : 1
Формат : AVC
Формат/Информация : Advanced Video Codec
Профиль формата : High@L4.1
Параметр CABAC формата : Да
Параметр ReFrames формата : 9 кадров
Идентификатор кодека : V_MPEG4/ISO/AVC
Продолжительность : 5 м. 20 с.
Битрейт : 4188 Кбит/сек
Ширина : 1280 пикселей
Высота : 536 пикселей
Соотношение сторон : 2,40:1
Режим частоты кадров : Постоянный
Частота кадров : 24,000 кадра/сек
Цветовое пространство : YUV
Субдискретизация насыщенности : 4:2:0
Битовая глубина : 8 бит
Тип развёртки : Прогрессивная
Бит/(Пиксели*Кадры) : 0.254
Размер потока : 160 Мбайт (85%)
Заголовок : Cosmic.Scrat-tastrophe.2015.DCPRip.720p.DD5.1.x264-TNClub
Библиотека кодирования : x264 core 146 r2538 121396c
Настройки программы : cabac=1 / ref=9 / deblock=1:-2:-1 / analyse=0x3:0x133 / me=umh / subme=11 / psy=1 / psy_rd=1.05:0.10 / mixed_ref=1 / me_range=32 / chroma_me=1 / trellis=2 / 8x8dct=1 / cqm=0 / deadzone=21,11 / fast_pskip=0 / chroma_qp_offset=-4 / threads=6 / lookahead_threads=1 / sliced_threads=0 / nr=0 / decimate=1 / interlaced=0 / bluray_compat=0 / constrained_intra=0 / bframes=7 / b_pyramid=2 / b_adapt=2 / b_bias=0 / direct=1 / weightb=1 / open_gop=0 / weightp=2 / keyint=230 / keyint_min=21 / scenecut=40 / intra_refresh=0 / rc_lookahead=60 / rc=crf / mbtree=0 / crf=17.0 / qcomp=0.70 / qpmin=0 / qpmax=69 / qpstep=4 / vbv_maxrate=30000 / vbv_bufsize=40000 / crf_max=0.0 / nal_hrd=none / filler=0 / ip_ratio=1.35 / pb_ratio=1.25 / aq=2:0.90
Язык : English
Default : Да
Forced : Нет
DURATION : 00:05:20.709000000
NUMBER_OF_FRAMES : 7697
NUMBER_OF_BYTES : 171338320
_STATISTICS_WRITING_APP : mkvmerge v8.3.0 ('Over the Horizon') 32bit
_STATISTICS_WRITING_DATE_UTC : 2015-11-29 06:39:46
_STATISTICS_TAGS : BPS DURATION NUMBER_OF_FRAMES NUMBER_OF_BYTES

Аудио
Идентификатор : 2
Формат : AC-3
Формат/Информация : Audio Coding 3
Расширение режима : CM (complete main)
Параметр Endianness формата : Big
Идентификатор кодека : A_AC3
Продолжительность : 5 м. 20 с.
Вид битрейта : Постоянный
Битрейт : 640 Кбит/сек
Каналы : 6 каналов
Расположение каналов : Front: L C R, Side: L R, LFE
Частота : 48,0 КГц
Метод сжатия : С потерями
Размер потока : 24,5 Мбайт (13%)
Заголовок : DD5.1@640
Язык : Russian
Default : Да
Forced : Нет
Пожалуйста, оставайтесь на раздаче как можно дольше!
Релиз специально для Tapochek.net
Все раздачи R.G.TNClub




Оформление by:GhostRidik
info [Профиль]  [ЛС] 

post 29-Ноя-2015 10:42 (спустя 6 дней) [-]-3[+]

Топик был перенесен из форума Оформление раздач (R.G. TNClub) в форум Новинки 2014-2015 (Web-DL, DVD, HD DVD, Blu-ray, HD Rips)

L
 

Fan Fan

Пол: Пол:Муж

Стаж: 6 лет 3 месяца

Сообщений: 1109

Италия
Рейтинг

post 29-Ноя-2015 11:46 (спустя 7 дней) [-]6[+]

[Цитировать] 

Весь сюжет показан на скриншотах)

_________________
info [Профиль]  [ЛС] 

post 29-Ноя-2015 12:46 (спустя 59 минут) [-]-2[+]

Топик был перенесен из форума Новинки 2014-2015 (Web-DL, DVD, HD DVD, Blu-ray, HD Rips) в форум Мультфильмы от R.G. TNСlub

L
 
Показать сообщения:    
Ответить на тему

Текущее время: 08-Дек 16:03

Часовой пояс: GMT + 4



Вы не можете начинать темы
Вы не можете отвечать на сообщения
Вы не можете редактировать свои сообщения
Вы не можете удалять свои сообщения
Вы не можете голосовать в опросах
Вы не можете прикреплять файлы к сообщениям
Вы не можете скачивать файлы