Ошибка

Ирония судьбы, или с лёгким паром! (Эльдар Рязанов) [1975 г., Комедия, мелодрама, DVDRip]

Ответить на тему
 
Автор Сообщение

veteran1

Пол: Пол:Муж

Стаж: 4 года 11 месяцев

Сообщений: 142

Белоруссия
Рейтинг

post 21-Ноя-2015 15:25 3[+]

[Цитировать] 

Ирония судьбы, или с лёгким паром!

Год выпуска: 1975
Жанр: Комедия, мелодрама
Продолжительность: 01:39:51+01:24:20
Язык субтитров: отсутствуют

Режиссер:
  • Эльдар Рязанов


В ролях:
  • Андрей Мягков, Барбара Брыльска, Юрий Яковлев, Александр Ширвиндт, Георгий Бурков, Лия Ахеджакова


Описание: Пошли друзья в баню 31 декабря, в аккурат под Новый год, чтобы попариться, по традиции смыть с себя все плохое, и встретить Новый Год чистыми, а «напарились» до такой степени, что отправили в бессознательном состоянии в Ленинград не того. В Аэропорту Женя назвал таксисту свой московский адрес, вошел в дом, открыл дверь своим ключом и лёг отсыпаться.
Так Андрей Мягков вместо Александра Ширвиндта «попал» в чужую, но точно такую же квартиру, на точно такой же улице, с точно такой же мебелью, где познакомился с чудесной женщиной и полюбил ее..

Автор рипа: veteran1

Качество: DVDRip
Формат: AVI
Видео кодек: XviD
Аудио кодек: AC3
Видео: 704x512 (1.38:1), 25 fps, XviD build 64 ~1630 kbps avg, 0.18 bit/pixel
Аудио: 48 kHz, AC3 Dolby Digital, 3/2 (L,C,R,l,r) + LFE ch, ~448.00 kbps avg

Код:

Общее
Полное имя                       : H:\Films\Фильмы\Ирония судьбы, или С легким паром!\Ирония.судьбы.или.С.легким.паром!01.1975.DVDRip.by.veteran1.avi
Формат                           : AVI
Формат/Информация                : Audio Video Interleave
Размер файла                     : 1,46 Гбайт
Продолжительность                : 1 ч. 39 м.
Общий поток                      : 2088 Кбит/сек
Программа кодирования            : VirtualDubMod 1.5.10.2 (build 2540/release)
Библиотека кодирования           : VirtualDubMod build 2540/release

Видео
Идентификатор                    : 0
Формат                           : MPEG-4 Visual
Профиль формата                  : Advanced Simple@L5
Параметр BVOP формата            : 1
Параметр QPel формата            : Нет
Параметр GMC формата             : Без точки перехода
Параметр матрицы формата         : Default (H.263)
Идентификатор кодека             : DX50
Идентификатор кодека/Подсказка   : DivX 5
Продолжительность                : 1 ч. 39 м.
Битрейт                          : 1630 Кбит/сек
Ширина                           : 704 пикс.
Высота                           : 512 пикс.
Соотношение сторон               : 1,375
Частота кадров                   : 25,000 кадр/сек
Цветовое пространство            : YUV
Подвыборка цветности             : 4:2:0
Битовая глубина                  : 8 бит
Тип развёртки                    : Прогрессивная
Метод сжатия                     : С потерями
Бит/(Пиксели*Кадры)              : 0.181
Размер потока                    : 1,14 Гбайт (78%)
Библиотека кодирования           : XviD 64

Аудио
Идентификатор                    : 1
Формат                           : AC-3
Формат/Информация                : Audio Coding 3
Расширение режима                : CM (complete main)
Идентификатор кодека             : 2000
Продолжительность                : 1 ч. 39 м.
Вид битрейта                     : Постоянный
Битрейт                          : 448 Кбит/сек
Каналы                           : 6 каналов
Расположение каналов             : Front: L C R, Side: L R, LFE
Частота                          : 48,0 КГц
Битовая глубина                  : 16 бит
Метод сжатия                     : С потерями
Размер потока                    : 320 Мбайт (21%)
Выравнивание                     : Разделение по промежуткам
Продолжительность промежутка     : 40  мс. (1,00 видеокадр)
Время предзагрузки промежутка    : 500 ms
info [Профиль]  [ЛС] 

impreza_wrc

Пол: Пол:Муж

Стаж: 2 года 5 месяцев

Сообщений: 31

СССР
Рейтинг

post 22-Ноя-2015 14:32 (спустя 23 часа) [-]2[+]

[Цитировать] 

Скоро, во всех телевизорах страны.... Кроме моего. Сколько можно-то...
info [Профиль]  [ЛС] 

veteran1

Пол: Пол:Муж

Стаж: 4 года 11 месяцев

Сообщений: 142

Белоруссия
Рейтинг

post 22-Ноя-2015 14:55 (спустя 22 минуты) [-]1[+]

[Цитировать] 

impreza_wrc, никто же не заставляет качать.

_________________
info [Профиль]  [ЛС] 

errorcode

Стаж: 7 лет 1 месяц

Сообщений: 11

Рейтинг

post 22-Ноя-2015 16:21 (спустя 1 час 26 минут) [-]4[+]

[Цитировать] 

сто лет не видел, надо пересмотреть)
info [Профиль]  [ЛС] 

stormbringer

Пол: Пол:Муж

Стаж: 6 лет 7 месяцев

Сообщений: 84

Рейтинг

post 22-Ноя-2015 16:51 (спустя 29 минут) [-]1[+]

[Цитировать] 

Очень жаль, что фильм еще не выпустили на блурей.
info [Профиль]  [ЛС] 

O_Q

Пол: Пол:Муж

Стаж: 3 года 6 месяцев

Сообщений: 156

Япония
Рейтинг

post 22-Ноя-2015 21:33 (спустя 4 часа) [-]1[+]

[Цитировать] 

impreza_wrc писал(а):

Скоро, во всех телевизорах страны.... Кроме моего. Сколько можно-то...
Для многих этот фильм как символ нового года.

_________________
Водка со льдом вредит почкам, ром со льдом печени, джин со льдом сердцу,виски со льдом мозгу. Этот чёртов лёд невероятно вреден.
info [Профиль]  [ЛС] 

Old Good Liam

Пол: Пол:Муж

Стаж: 1 год 8 месяцев

Сообщений: 31

Великобритания
Рейтинг

post 22-Ноя-2015 22:50 (спустя 1 час 17 минут) [-]1[+]

[Цитировать] 

Я понимаю, что это кино, художественный вымысел и т.д. Не для придирок, а ради интереса: в Советском союзе авиабилеты не именные были?
info [Профиль]  [ЛС] 

errorcode

Стаж: 7 лет 1 месяц

Сообщений: 11

Рейтинг

post 23-Ноя-2015 16:08 (спустя 17 часов) [-]0[+]

[Цитировать] 

Пьяный в г@вно чувак приезжает в другой город и разрушает чужую семью) символ НГ блин
info [Профиль]  [ЛС] 

veteran1

Пол: Пол:Муж

Стаж: 4 года 11 месяцев

Сообщений: 142

Белоруссия
Рейтинг

post 25-Ноя-2015 23:41 (спустя 2 дня 7 часов) [-]0[+]

[Цитировать] 

errorcode писал(а):

Пьяный в г@вно чувак приезжает в другой город и разрушает чужую семью) символ НГ блин
Если смотрели, то и чужой семьи на тот момент не было. Были только планы.

Old Good Liam писал(а):

художественный вымысел

_________________
info [Профиль]  [ЛС] 
Показать сообщения:    
Ответить на тему

Текущее время: 07-Дек 12:45

Часовой пояс: GMT + 4



Вы не можете начинать темы
Вы не можете отвечать на сообщения
Вы не можете редактировать свои сообщения
Вы не можете удалять свои сообщения
Вы не можете голосовать в опросах
Вы не можете прикреплять файлы к сообщениям
Вы не можете скачивать файлы