Ошибка

Гений (Виктор Сергеев) [1991 г., Комедия, криминал, DVDRip]

Ответить на тему
 
Автор Сообщение

veteran1

Пол: Пол:Муж

Стаж: 4 года 11 месяцев

Сообщений: 142

Белоруссия
Рейтинг

post 17-Ноя-2015 18:02 1[+]

[Цитировать] 

Гений

Год выпуска: 1991
Жанр: Комедия, криминал
Продолжительность: 01:08:26+01:22:57
Язык субтитров: отсутствуют

Режиссер:
  • Виктор Сергеев


В ролях:
  • Александр Абдулов, Иннокентий Смоктуновский, Лариса Белогурова, Юрий Кузнецов, Валентина Талызина, Сергей Проханов, Анатолий Кузнецов, Альгис Матулёнис, Виктор Ильичёв, Виктор Смирнов, Георгий Мартиросян, Михаил Морозов, Лев Лемке, Виктор Сергеев, Нина Антонова


Описание: Герой фильма, в прошлом талантливый физик-электронщик, а ныне директор овощного магазина, имеет криминальное хобби. Его изобретательные и технические великолепные операции задевают интересы не только правоохранительных органов, но и кровожадных мафиозных структур.

Автор рипа: veteran1

Качество: DVDRip
Формат: AVI
Видео кодек: XviD
Аудио кодек: AC3
Видео: 704x512 (1.38:1), 25 fps, XviD build 64 ~1829 kbps avg, 0.20 bit/pixel
Аудио: 48 kHz, AC3 Dolby Digital, 3/2 (L,C,R,l,r) + LFE ch, ~448.00 kbps avg

Код:

Общее
Полное имя                       : H:\Films\Фильмы\Гений\Гений.01.1991.DVDRip.by.veteran1.avi
Формат                           : AVI
Формат/Информация                : Audio Video Interleave
Размер файла                     : 1,09 Гбайт
Продолжительность                : 1 ч. 8 м.
Общий поток                      : 2288 Кбит/сек
Программа кодирования            : VirtualDubMod 1.5.10.2 (build 2540/release)
Библиотека кодирования           : VirtualDubMod build 2540/release

Видео
Идентификатор                    : 0
Формат                           : MPEG-4 Visual
Профиль формата                  : Advanced Simple@L5
Параметр BVOP формата            : 1
Параметр QPel формата            : Нет
Параметр GMC формата             : Без точки перехода
Параметр матрицы формата         : Default (H.263)
Идентификатор кодека             : DX50
Идентификатор кодека/Подсказка   : DivX 5
Продолжительность                : 1 ч. 8 м.
Битрейт                          : 1830 Кбит/сек
Ширина                           : 704 пикс.
Высота                           : 512 пикс.
Соотношение сторон               : 1,375
Частота кадров                   : 25,000 кадр/сек
Цветовое пространство            : YUV
Подвыборка цветности             : 4:2:0
Битовая глубина                  : 8 бит
Тип развёртки                    : Прогрессивная
Метод сжатия                     : С потерями
Бит/(Пиксели*Кадры)              : 0.203
Размер потока                    : 896 Мбайт (80%)
Библиотека кодирования           : XviD 64

Аудио
Идентификатор                    : 1
Формат                           : AC-3
Формат/Информация                : Audio Coding 3
Расширение режима                : CM (complete main)
Идентификатор кодека             : 2000
Продолжительность                : 1 ч. 8 м.
Вид битрейта                     : Постоянный
Битрейт                          : 448 Кбит/сек
Каналы                           : 6 каналов
Расположение каналов             : Front: L C R, Side: L R, LFE
Частота                          : 48,0 КГц
Битовая глубина                  : 16 бит
Метод сжатия                     : С потерями
Размер потока                    : 219 Мбайт (20%)
Выравнивание                     : Разделение по промежуткам
Продолжительность промежутка     : 40  мс. (1,00 видеокадр)
Время предзагрузки промежутка    : 500 ms
info [Профиль]  [ЛС] 

Kirill

Пол: Пол:Муж

Стаж: 6 лет 2 месяца

Сообщений: 197

Россия
Рейтинг

post 17-Ноя-2015 21:35 (спустя 3 часа) [-]2[+]

[Цитировать] 

Классный фильм, мне понравилось
info [Профиль]  [ЛС] 

haizenberg

Пол: Пол:Муж

Стаж: 4 года 1 месяц

Сообщений: 361

Предупреждений: 3

СССР
Рейтинг

post 18-Ноя-2015 00:47 (спустя 3 часа) [-]1[+]

[Цитировать] 

Kirill
слово "понравилось" тут даже не совсем уместно)
это отличный фильм, можно сказать классика с актёрами советского кино высшей гильдии, поэтому это однозначно классный фильм!

_________________
День Победы, как он был от нас далек,
Как в костре потухшем таял уголек.....
info [Профиль]  [ЛС] 

veteran1

Пол: Пол:Муж

Стаж: 4 года 11 месяцев

Сообщений: 142

Белоруссия
Рейтинг

post 18-Ноя-2015 13:49 (спустя 13 часов) [-]0[+]

[Цитировать] 

Одним словом, классика.

_________________
info [Профиль]  [ЛС] 
Показать сообщения:    
Ответить на тему

Текущее время: 07-Дек 22:30

Часовой пояс: GMT + 4



Вы не можете начинать темы
Вы не можете отвечать на сообщения
Вы не можете редактировать свои сообщения
Вы не можете удалять свои сообщения
Вы не можете голосовать в опросах
Вы не можете прикреплять файлы к сообщениям
Вы не можете скачивать файлы