Ошибка

Стив Джобс: Человек в машине / Steve Jobs: The Man in the Machine (Алекс Гибни) [2015, документальный, BDRip 720p] Eng + Sub от R.G. TNClub

Ответить на тему
 
Автор Сообщение

R.G. TNClub

Стаж: 2 года 3 месяца

Сообщений: 515

Рейтинг

post 17-Ноя-2015 13:26 2[+]

[Цитировать] 

Стив Джобс: Человек в машине / Steve Jobs: The Man in the Machine
«Bold. Brilliant. Brutal»

Страна: США
Жанр: документальный
Год выпуска: 2015
Продолжительность: 02:00:10
Перевод: Оригинал
Субтитры: русские
Оригинальная дорожка: английская
Главы: есть

Режиссер: Алекс Гибни
Описание: Фильм рассказывает о частной жизни Стива Джобса.

Качество видео: BDRip 720p
Рип от L!
Формат видео: MKV
Видео: MPEG-4 AVC Video ~ 5.9 Mbps 1280 x 720 / 23,976 fps / 16:9 / High Profile 4.1
Аудио: 48 kHz, DTS, 3/2 (L,C,R,l,r) + LFE ch, ~1509.00 kbps avg
Формат субтитров: PGS

Раздача от &
Steve Jobs The Man in the Machine 2015 1080p Blu-ray AVC DTS-HD MA 5.1-UNRELiABLE
Уникальный идентификатор : 220946192245974340272693909229659260851 (0xA638B0538654117B9ECA233AB0F487B3)
Полное имя : D:\L#TNClub\Steve.Jobs.The.Man.in.the.Machine.2015.BluRay.720p.DTS.x264-TNClub.mkv
Формат : Matroska
Версия формата : Version 4 / Version 2
Размер файла : 6,84 Гбайт
Продолжительность : 2 ч. 8 м.
Общий поток : 7616 Кбит/сек
Название фильма : Steve.Jobs.The.Man.in.the.Machine.2015.BluRay.720p.DTS.x264-TNClub
Дата кодирования : UTC 2015-11-18 19:00:09
Программа кодирования : mkvmerge v8.3.0 ('Over the Horizon') 32bit
Библиотека кодирования : libebml v1.3.1 + libmatroska v1.4.2
Attachements : cover.png
DURATION : 02:08:14.020000000
NUMBER_OF_FRAMES : 3722
NUMBER_OF_BYTES : 24735038
_STATISTICS_WRITING_APP : mkvmerge v8.3.0 ('Over the Horizon') 32bit
_STATISTICS_WRITING_DATE_UTC : 2015-11-18 19:00:09
_STATISTICS_TAGS : BPS DURATION NUMBER_OF_FRAMES NUMBER_OF_BYTES

Видео
Идентификатор : 1
Формат : AVC
Формат/Информация : Advanced Video Codec
Профиль формата : High@L4.1
Параметр CABAC формата : Да
Параметр ReFrames формата : 9 кадров
Идентификатор кодека : V_MPEG4/ISO/AVC
Продолжительность : 2 ч. 8 м.
Битрейт : 5955 Кбит/сек
Ширина : 1280 пикселей
Высота : 720 пикселей
Соотношение сторон : 16:9
Режим частоты кадров : Постоянный
Частота кадров : 23,976 кадра/сек
Цветовое пространство : YUV
Субдискретизация насыщенности : 4:2:0
Битовая глубина : 8 бит
Тип развёртки : Прогрессивная
Бит/(Пиксели*Кадры) : 0.270
Размер потока : 5,35 Гбайт (78%)
Заголовок : Steve.Jobs.The.Man.in.the.Machine.2015.BluRay.720p.DTS.x264-TNClub
Библиотека кодирования : x264 core 146 r2538 121396c
Настройки программы : cabac=1 / ref=9 / deblock=1:-2:-1 / analyse=0x3:0x133 / me=umh / subme=11 / psy=1 / psy_rd=1.05:0.10 / mixed_ref=1 / me_range=32 / chroma_me=1 / trellis=2 / 8x8dct=1 / cqm=0 / deadzone=21,11 / fast_pskip=0 / chroma_qp_offset=-4 / threads=6 / lookahead_threads=1 / sliced_threads=0 / nr=0 / decimate=1 / interlaced=0 / bluray_compat=0 / constrained_intra=0 / bframes=8 / b_pyramid=2 / b_adapt=2 / b_bias=0 / direct=1 / weightb=1 / open_gop=0 / weightp=2 / keyint=230 / keyint_min=21 / scenecut=40 / intra_refresh=0 / rc_lookahead=60 / rc=crf / mbtree=0 / crf=17.0 / qcomp=0.70 / qpmin=0 / qpmax=69 / qpstep=4 / vbv_maxrate=30000 / vbv_bufsize=40000 / crf_max=0.0 / nal_hrd=none / filler=0 / ip_ratio=1.35 / pb_ratio=1.25 / aq=2:0.90
Язык : English
Default : Да
Forced : Нет
DURATION : 02:08:39.587000000
NUMBER_OF_FRAMES : 185085
NUMBER_OF_BYTES : 5865336243
_STATISTICS_WRITING_APP : mkvmerge v8.3.0 ('Over the Horizon') 32bit
_STATISTICS_WRITING_DATE_UTC : 2015-11-18 19:00:09
_STATISTICS_TAGS : BPS DURATION NUMBER_OF_FRAMES NUMBER_OF_BYTES

Аудио
Идентификатор : 2
Формат : DTS
Формат/Информация : Digital Theater Systems
Режим : 16
Параметр Endianness формата : Big
Идентификатор кодека : A_DTS
Продолжительность : 2 ч. 8 м.
Вид битрейта : Постоянный
Битрейт : 1509 Кбит/сек
Каналы : 6 каналов
Расположение каналов : Front: L C R, Side: L R, LFE
Частота : 48,0 КГц
Битовая глубина : 24 бит
Метод сжатия : С потерями
Размер потока : 1,36 Гбайт (20%)
Default : Да
Forced : Нет

Текст
Идентификатор : 3
Формат : PGS
Режим смешивания : zlib
Идентификатор кодека : S_HDMV/PGS
Идентификатор кодека/Информация : Picture based subtitle format used on BDs/HD-DVDs
Default : Да
Forced : Нет

Меню
00:00:00.000 : en:00:00:00.000
00:07:19.356 : en:00:07:19.356
00:17:57.285 : en:00:17:57.285
00:26:04.646 : en:00:26:04.646
00:36:21.179 : en:00:36:21.179
00:42:57.617 : en:00:42:57.617
00:49:40.394 : en:00:49:40.394
00:58:19.621 : en:00:58:19.621
01:06:43.291 : en:01:06:43.291
01:14:39.225 : en:01:14:39.225
01:24:30.607 : en:01:24:30.607
01:32:46.686 : en:01:32:46.686
01:38:38.204 : en:01:38:38.204
01:46:38.934 : en:01:46:38.934
01:54:01.626 : en:01:54:01.626
02:01:09.637 : en:02:01:09.637
02:07:00.196 : en:02:07:00.196
Пожалуйста, оставайтесь на раздаче как можно дольше!
Релиз специально для Tapochek.net
Все раздачи R.G.TNClub




Оформление by:GhostRidik
info [Профиль]  [ЛС] 

post 18-Ноя-2015 23:09 (спустя 1 день 9 часов) [-]0[+]

Топик был перенесен из форума Оформление раздач (R.G. TNClub) в форум Новинки 2014-2015 (Web-DL, DVD, HD DVD, Blu-ray, HD Rips)

L
 

Axelfox

Пол: Пол:Муж

Стаж: 3 года 10 месяцев

Сообщений: 57

Россия
Рейтинг

post 19-Ноя-2015 01:29 (спустя 1 день 12 часов) [-]-27[+]

[Цитировать] 

Я жутко ненавижу всю продукцию яблока... По вполне объективным причинам...
Так, как, мне пришлось трахаться при установке, на яблоки, облачной системы безопасности, думаю, не страдал никто!
Но! Я очень уважаю Стива Джобса, по причине его гения!!! Сделать из обгрызанного яблока эталон для всего мира!!! Это феномен....
А ведь яблоко обгрызано, патаму чта - кривое везде и вся, начиная с железа, заканчивая поддержкой!
Вот ведь чувак прикололся!!! Впарил пиплу хрень!!! А пипл хавает, даже после смерти чувака!!!
Задумайтесь... Одумайтесь...
Но чел ВЕЛИКИЙ!!! Уважаю!
info [Профиль]  [ЛС] 

GogolemTop

Пол: Пол:Муж

Стаж: 2 года 4 месяца

Сообщений: 11

Россия
Рейтинг

post 19-Ноя-2015 01:32 (спустя 2 минуты) [-]0[+]

[Цитировать] 

Кто посмотрел фильм уже ? Что скажете как он ? Заранее спасибо .
info [Профиль]  [ЛС] 

Fire Ball

Стаж: 4 года 1 месяц

Сообщений: 606

Предупреждений: 3

Рейтинг

post 19-Ноя-2015 02:42 (спустя 1 час 10 минут) [-]-3[+]

[Цитировать] 

GogolemTop
кОчаем Смеюсь

UP: скОчал! Но смотреть буду уже завтра. Улыбаюсь

_________________
info [Профиль]  [ЛС] 

brutalshoe

Пол: Пол:Муж

Стаж: 7 лет 2 месяца

Сообщений: 224

Россия
Рейтинг

post 19-Ноя-2015 09:00 (спустя 6 часов) [-]9[+]

[Цитировать] 

Axelfox писал(а):

А ведь яблоко обгрызано, патаму чта - кривое везде и вся, начиная с железа, заканчивая поддержкой!
Просто руки у тебя кривые и всё. С продукцией Apple даже мартышка справится, настолько все интуитивно понятно.
info [Профиль]  [ЛС] 

money yack

Пол: Пол:Муж

Стаж: 6 лет 8 месяцев

Сообщений: 218

Тёркс и Кайкос
Рейтинг

post 19-Ноя-2015 11:19 (спустя 2 часа 19 минут) [-]9[+]

[Цитировать] 

Axelfox писал(а):

Я жутко ненавижу всю продукцию яблока... По вполне объективным причинам...
Так, как, мне пришлось трахаться при установке, на яблоки, облачной системы безопасности, думаю, не страдал никто!
Но! Я очень уважаю Стива Джобса, по причине его гения!!! Сделать из обгрызанного яблока эталон для всего мира!!! Это феномен....
А ведь яблоко обгрызано, патаму чта - кривое везде и вся, начиная с железа, заканчивая поддержкой!
Вот ведь чувак прикололся!!! Впарил пиплу хрень!!! А пипл хавает, даже после смерти чувака!!!
Задумайтесь... Одумайтесь...
Но чел ВЕЛИКИЙ!!! Уважаю!
обожаю нынешнее поколение. космонавты? ВТОПКУ! ученые? ВТОПКУ! актеры, изобретатели, первопроходцы?... ВТОПКУ!
---
барыга? да!

Цитата:

гений! феномен! великий! уважаю!
info [Профиль]  [ЛС] 

Hospitaller

Пол: Пол:Муж

Стаж: 6 лет 9 месяцев

Сообщений: 1534

Словения
Рейтинг

post 19-Ноя-2015 11:24 (спустя 5 минут) [-]9[+]

[Цитировать] 

Кстати кому интересно , есть фильм "Пираты силиконовой долины" , вот там все как надо описано про всю их компашку тамошнюю.

_________________
info [Профиль]  [ЛС] 

Fire Ball

Стаж: 4 года 1 месяц

Сообщений: 606

Предупреждений: 3

Рейтинг

post 19-Ноя-2015 12:36 (спустя 1 час 12 минут) [-]2[+]

[Цитировать] 

Hospitaller
Да, вот это вообще отличный фильм!

_________________
info [Профиль]  [ЛС] 

ramsesjol

Пол: Пол:Муж

Стаж: 6 лет 8 месяцев

Сообщений: 77

Россия
Рейтинг

post 19-Ноя-2015 14:27 (спустя 1 час 51 минута) [-]5[+]

[Цитировать] 

Господи, сколько можно то? Может быть кто-нибудь снимет кинец про его кореша, который и делал всю работу? А не про Джобса, умеющего только говорить.
info [Профиль]  [ЛС] 

igorekla

Стаж: 4 года 6 месяцев

Сообщений: 2

Рейтинг

post 19-Ноя-2015 21:56 (спустя 7 часов) [-]8[+]

[Цитировать] 

ramsesjol
Если бы не Джобс, Стив так бы и мастерил платы у себя дома и раздавал их бесплатно. Они дополняли друг друга. Итогом их совместной работы и стала Apple.
info [Профиль]  [ЛС] 

post 21-Ноя-2015 01:20 (спустя 1 день 3 часа) [-]0[+]

Топик был перенесен из форума Новинки 2014-2015 (Web-DL, DVD, HD DVD, Blu-ray, HD Rips) в форум Другие рипы от R.G. TNСlub (Сериалы, документальное и др.)

L
 

ilyaign

Пол: Пол:Муж

Стаж: 4 года 11 месяцев

Сообщений: 60

Рейтинг

post 07-Янв-2016 19:51 (спустя 1 месяц 17 дней) [-]1[+]

[Цитировать] 

хрень какая-то, удалил
info [Профиль]  [ЛС] 
Показать сообщения:    
Ответить на тему

Текущее время: 03-Дек 13:42

Часовой пояс: GMT + 4



Вы не можете начинать темы
Вы не можете отвечать на сообщения
Вы не можете редактировать свои сообщения
Вы не можете удалять свои сообщения
Вы не можете голосовать в опросах
Вы не можете прикреплять файлы к сообщениям
Вы не можете скачивать файлы