Ошибка

Приключения Шерлока Холмса и Доктора Ватсона (Игорь Масленников) [1979-1986 гг., Детектив, DVDRip]

Ответить на тему
 
Автор Сообщение

veteran1

Пол: Пол:Муж

Стаж: 4 года 11 месяцев

Сообщений: 142

Белоруссия
Рейтинг

post 14-Ноя-2015 14:04 9[+]

[Цитировать] 

Приключения Шерлока Холмса и Доктора Ватсона

Год выпуска: 1979-1986
Страна: Россия
Жанр: Детектив
Язык субтитров: отсутствует

Режиссер:
  • Игорь Масленников


В ролях:
  • Василий Ливанов, Виталий Соломин, Борислав Брондуков, Рина Зелёная, Геннадий Богачев, Мария Соломина, Федор Одиноков, Игорь Дмитриев, Николай Караченцов, Адольф Ильин, Виктор Артистов, Александр Адабашьян, Никита Михалков, Виктор Проскурин, Павел Кадочников, Сергей Шакуров, Анатолий Сливников, Валентина Кособуцкая, Николай Кузьмин, Марина Юрасова, Владимир Дорошев, Георгий Мартиросян, Лариса Соловьева, Павел Ремезов, Юрий Серов, Кира Гурецкая, Светлана Крючкова, Олег Янковский, Ирина Купченко, Алла Демидова, Сергей Мартинсон, Олег Пальмов, Евгений Стеблов и др.


Автор рипа: veteran1
Продолжительность: 01:07:36+01:05:54

Описание: Две замечательные серии по мотивам повести Артура Конан Дойля Красным по белому и рассказа Пестрая лента из классики российского кинематографа о приключениях Шерлока Холмса и доктора Ватсона. В первой серии Холмс и Ватсон знакомятся друг с другом и находят общий язык, а также попутно разгадывают дело о пестрой ленте, в котором негодяй отчим убивал своих падчериц, чтобы заполучить наследство. А во второй части Холмс раскрывает тайну загадочного убийства в заброшенном доме.

Качество: DVDRip
Формат: AVI
Видео кодек: XviD
Аудио кодек: AC3
Видео: 704x512 (1.38:1), 25 fps, XviD build 64 ~2207 kbps avg, 0.25 bit/pixel
Аудио#1: 48 kHz, AC3 Dolby Digital, 3/2 (L,C,R,l,r) + LFE ch, ~448.00 kbps avg
Аудио#2: 48 kHz, AC3 Dolby Digital, 1/0 (C) ch, ~224.00 kbps avg (Original)

Код:

Общее
Полное имя                       : D:\Films\Фильмы\Шерлок Холмс и доктор Ватсон - veteran1\Шерлок.Холмс.01.1979.Знакомство.DVDRip.by.veteran1.avi
Формат                           : AVI
Формат/Информация                : Audio Video Interleave
Размер файла                     : 1,37 Гбайт
Продолжительность                : 1 ч. 7 м.
Общий поток                      : 2895 Кбит/сек
Программа кодирования            : VirtualDubMod 1.5.10.2 (build 2540/release)
Библиотека кодирования           : VirtualDubMod build 2540/release

Видео
Идентификатор                    : 0
Формат                           : MPEG-4 Visual
Профиль формата                  : Advanced Simple@L5
Параметр BVOP формата            : 1
Параметр QPel формата            : Нет
Параметр GMC формата             : Без точки перехода
Параметр матрицы формата         : Default (H.263)
Идентификатор кодека             : DX50
Идентификатор кодека/Подсказка   : DivX 5
Продолжительность                : 1 ч. 7 м.
Битрейт                          : 2209 Кбит/сек
Ширина                           : 704 пикс.
Высота                           : 512 пикс.
Соотношение сторон               : 1,375
Частота кадров                   : 25,000 кадр/сек
Цветовое пространство            : YUV
Подвыборка цветности             : 4:2:0
Битовая глубина                  : 8 бит
Тип развёртки                    : Прогрессивная
Метод сжатия                     : С потерями
Бит/(Пиксели*Кадры)              : 0.245
Размер потока                    : 1,04 Гбайт (76%)
Библиотека кодирования           : XviD 64

Аудио #1
Идентификатор                    : 1
Формат                           : AC-3
Формат/Информация                : Audio Coding 3
Расширение режима                : CM (complete main)
Идентификатор кодека             : 2000
Продолжительность                : 1 ч. 7 м.
Вид битрейта                     : Постоянный
Битрейт                          : 448 Кбит/сек
Каналы                           : 6 каналов
Расположение каналов             : Front: L C R, Side: L R, LFE
Частота                          : 48,0 КГц
Битовая глубина                  : 16 бит
Метод сжатия                     : С потерями
Задержка видео                   : 200 мс.
Размер потока                    : 217 Мбайт (15%)
Выравнивание                     : Разделение по промежуткам
Продолжительность промежутка     : 40  мс. (1,00 видеокадр)
Время предзагрузки промежутка    : 500 ms

Аудио #2
Идентификатор                    : 2
Формат                           : AC-3
Формат/Информация                : Audio Coding 3
Расширение режима                : CM (complete main)
Идентификатор кодека             : 2000
Продолжительность                : 1 ч. 7 м.
Вид битрейта                     : Постоянный
Битрейт                          : 224 Кбит/сек
Каналы                           : 1 канал
Расположение каналов             : Front: C
Частота                          : 48,0 КГц
Битовая глубина                  : 16 бит
Метод сжатия                     : С потерями
Задержка видео                   : 200 мс.
Размер потока                    : 108 Мбайт (8%)
Выравнивание                     : Разделение по промежуткам
Продолжительность промежутка     : 40  мс. (1,00 видеокадр)
Время предзагрузки промежутка    : 500 ms
Продолжительность: 01:03:21+01:04:37+01:04:32

Описание: Король шантажа - это негодяй Чарльз Милвертон, сделавший состояние на упомянутых в названии махинациях. Желая помочь бедной женщине, не имеющей средств выкупить у Милвертона компрометирующие ее письма, Холмс и Ватсон проникают в дом мерзавца и становятся невольными свидетелями его убийства. Уничтожив картотеку дельца, друзья скрываются, но попадают в поле зрения демонического доктора Мориарти, друга и партнера покойного. В Смертельной схватке этот серьезный мистер устраивает настоящую охоту за сыщиком. В третьей серии загрустивший после гибели друга Ватсон коротает одинокие вечера у камина, но однажды в дом на Бейкер-стрит вваливается ряженый Холмс, в свою очередь, тайно намеревающийся предпринять Охоту на тигра.

Качество: DVDRip
Формат: AVI
Видео кодек: XviD
Аудио кодек: AC3
Видео: 704x512 (1.38:1), 25 fps, XviD build 64 ~2401 kbps avg, 0.27 bit/pixel
Аудио#1: 48 kHz, AC3 Dolby Digital, 3/2 (L,C,R,l,r) + LFE ch, ~448.00 kbps avg
Аудио#2: 48 kHz, AC3 Dolby Digital, 1/0 (C) ch, ~224.00 kbps avg (Original)

Код:

Общее
Полное имя                       : D:\Films\Фильмы\Шерлок Холмс и доктор Ватсон - veteran1\Шерлок.Холмс.03.1980.Король.шантажа.DVDRip.by.veteran1.avi
Формат                           : AVI
Формат/Информация                : Audio Video Interleave
Размер файла                     : 1,37 Гбайт
Продолжительность                : 1 ч. 3 м.
Общий поток                      : 3089 Кбит/сек
Программа кодирования            : VirtualDubMod 1.5.10.2 (build 2540/release)
Библиотека кодирования           : VirtualDubMod build 2540/release

Видео
Идентификатор                    : 0
Формат                           : MPEG-4 Visual
Профиль формата                  : Advanced Simple@L5
Параметр BVOP формата            : 1
Параметр QPel формата            : Нет
Параметр GMC формата             : Без точки перехода
Параметр матрицы формата         : Default (H.263)
Идентификатор кодека             : DX50
Идентификатор кодека/Подсказка   : DivX 5
Продолжительность                : 1 ч. 3 м.
Битрейт                          : 2403 Кбит/сек
Ширина                           : 704 пикс.
Высота                           : 512 пикс.
Соотношение сторон               : 1,375
Частота кадров                   : 25,000 кадр/сек
Цветовое пространство            : YUV
Подвыборка цветности             : 4:2:0
Битовая глубина                  : 8 бит
Тип развёртки                    : Прогрессивная
Метод сжатия                     : С потерями
Бит/(Пиксели*Кадры)              : 0.267
Размер потока                    : 1,06 Гбайт (78%)
Библиотека кодирования           : XviD 64

Аудио #1
Идентификатор                    : 1
Формат                           : AC-3
Формат/Информация                : Audio Coding 3
Расширение режима                : CM (complete main)
Идентификатор кодека             : 2000
Продолжительность                : 1 ч. 3 м.
Вид битрейта                     : Постоянный
Битрейт                          : 448 Кбит/сек
Каналы                           : 6 каналов
Расположение каналов             : Front: L C R, Side: L R, LFE
Частота                          : 48,0 КГц
Битовая глубина                  : 16 бит
Метод сжатия                     : С потерями
Задержка видео                   : 12 мс.
Размер потока                    : 203 Мбайт (15%)
Выравнивание                     : Разделение по промежуткам
Продолжительность промежутка     : 40  мс. (1,00 видеокадр)
Время предзагрузки промежутка    : 500 ms

Аудио #2
Идентификатор                    : 2
Формат                           : AC-3
Формат/Информация                : Audio Coding 3
Расширение режима                : CM (complete main)
Идентификатор кодека             : 2000
Продолжительность                : 1 ч. 3 м.
Вид битрейта                     : Постоянный
Битрейт                          : 224 Кбит/сек
Каналы                           : 1 канал
Расположение каналов             : Front: C
Частота                          : 48,0 КГц
Битовая глубина                  : 16 бит
Метод сжатия                     : С потерями
Задержка видео                   : 14 мс.
Размер потока                    : 102 Мбайт (7%)
Выравнивание                     : Разделение по промежуткам
Продолжительность промежутка     : 40  мс. (1,00 видеокадр)
Время предзагрузки промежутка    : 500 ms
Продолжительность: 01:13:47+01:12:24

Описание: В этом фильме Шерлок Холмс и Доктор Ватсон распутывают тайну загадочной смерти сэра Чарльза Баскервиля, которая каким-то образом связана с древним проклятием рода Баскервилей.

Качество: DVDRip
Формат: AVI
Видео кодек: XviD
Аудио кодек: AC3
Видео: 704x512 (1.38:1), 25 fps, XviD build 64 ~1964 kbps avg, 0.22 bit/pixel
Аудио#1: 48 kHz, AC3 Dolby Digital, 3/2 (L,C,R,l,r) + LFE ch, ~448.00 kbps avg
Аудио#2: 48 kHz, AC3 Dolby Digital, 1/0 (C) ch, ~224.00 kbps avg (Original)

Код:

Общее
Полное имя                       : D:\Films\Фильмы\Шерлок Холмс и доктор Ватсон - veteran1\Шерлок.Холмс.06.1981.Собака.Баскервилей.01.DVDRip.by.veteran1.avi
Формат                           : AVI
Формат/Информация                : Audio Video Interleave
Размер файла                     : 1,37 Гбайт
Продолжительность                : 1 ч. 13 м.
Общий поток                      : 2652 Кбит/сек
Программа кодирования            : VirtualDubMod 1.5.10.2 (build 2540/release)
Библиотека кодирования           : VirtualDubMod build 2540/release

Видео
Идентификатор                    : 0
Формат                           : MPEG-4 Visual
Профиль формата                  : Advanced Simple@L5
Параметр BVOP формата            : 1
Параметр QPel формата            : Нет
Параметр GMC формата             : Без точки перехода
Параметр матрицы формата         : Default (H.263)
Идентификатор кодека             : DX50
Идентификатор кодека/Подсказка   : DivX 5
Продолжительность                : 1 ч. 13 м.
Битрейт                          : 1966 Кбит/сек
Ширина                           : 704 пикс.
Высота                           : 512 пикс.
Соотношение сторон               : 1,375
Частота кадров                   : 25,000 кадр/сек
Цветовое пространство            : YUV
Подвыборка цветности             : 4:2:0
Битовая глубина                  : 8 бит
Тип развёртки                    : Прогрессивная
Метод сжатия                     : С потерями
Бит/(Пиксели*Кадры)              : 0.218
Размер потока                    : 1,01 Гбайт (74%)
Библиотека кодирования           : XviD 64

Аудио #1
Идентификатор                    : 1
Формат                           : AC-3
Формат/Информация                : Audio Coding 3
Расширение режима                : CM (complete main)
Идентификатор кодека             : 2000
Продолжительность                : 1 ч. 13 м.
Вид битрейта                     : Постоянный
Битрейт                          : 448 Кбит/сек
Каналы                           : 6 каналов
Расположение каналов             : Front: L C R, Side: L R, LFE
Частота                          : 48,0 КГц
Битовая глубина                  : 16 бит
Метод сжатия                     : С потерями
Размер потока                    : 236 Мбайт (17%)
Выравнивание                     : Разделение по промежуткам
Продолжительность промежутка     : 40  мс. (1,00 видеокадр)
Время предзагрузки промежутка    : 500 ms

Аудио #2
Идентификатор                    : 2
Формат                           : AC-3
Формат/Информация                : Audio Coding 3
Расширение режима                : CM (complete main)
Идентификатор кодека             : 2000
Продолжительность                : 1 ч. 13 м.
Вид битрейта                     : Постоянный
Битрейт                          : 224 Кбит/сек
Каналы                           : 1 канал
Расположение каналов             : Front: C
Частота                          : 48,0 КГц
Битовая глубина                  : 16 бит
Метод сжатия                     : С потерями
Размер потока                    : 118 Мбайт (8%)
Выравнивание                     : Разделение по промежуткам
Продолжительность промежутка     : 40  мс. (1,00 видеокадр)
Время предзагрузки промежутка    : 500 ms
Продолжительность: 01:12:01+01:12:52

Описание: Двухсерийный художественный фильм, снятый по мотивам рассказов Артура Конан Дойля Знак Четырех и Скандал в Богемии.
Описывая это дело, перо доктора Ватсона летело по бумаге стремительнее, чем стрела, пущенная из лука. Здесь есть все - таинственные обстоятельства убийства, сверкающие драгоценности, колоритные фигуры ... Но главное - в ходе расследования доктор Ватсон встречает женщину, с которой, быть может, надолго свяжет свою жизнь ...

Качество: DVDRip
Формат: AVI
Видео кодек: XviD
Аудио кодек: AC3
Видео: 704x512 (1.38:1), 25 fps, XviD build 64 ~2030 kbps avg, 0.23 bit/pixel
Аудио#1: 48 kHz, AC3 Dolby Digital, 3/2 (L,C,R,l,r) + LFE ch, ~448.00 kbps avg
Аудио#2: 48 kHz, AC3 Dolby Digital, 1/0 (C) ch, ~224.00 kbps avg (Original)

Код:

Общее
Полное имя                       : D:\Films\Фильмы\Шерлок Холмс и доктор Ватсон - veteran1\Шерлок.Холмс.08.1983.Сокровища.Агры.01.DVDRip.by.veteran1.avi
Формат                           : AVI
Формат/Информация                : Audio Video Interleave
Размер файла                     : 1,37 Гбайт
Продолжительность                : 1 ч. 12 м.
Общий поток                      : 2718 Кбит/сек
Программа кодирования            : VirtualDubMod 1.5.10.2 (build 2540/release)
Библиотека кодирования           : VirtualDubMod build 2540/release

Видео
Идентификатор                    : 0
Формат                           : MPEG-4 Visual
Профиль формата                  : Advanced Simple@L5
Параметр BVOP формата            : 1
Параметр QPel формата            : Нет
Параметр GMC формата             : Без точки перехода
Параметр матрицы формата         : Default (H.263)
Идентификатор кодека             : DX50
Идентификатор кодека/Подсказка   : DivX 5
Продолжительность                : 1 ч. 12 м.
Битрейт                          : 2031 Кбит/сек
Ширина                           : 704 пикс.
Высота                           : 512 пикс.
Соотношение сторон               : 1,375
Частота кадров                   : 25,000 кадр/сек
Цветовое пространство            : YUV
Подвыборка цветности             : 4:2:0
Битовая глубина                  : 8 бит
Тип развёртки                    : Прогрессивная
Метод сжатия                     : С потерями
Бит/(Пиксели*Кадры)              : 0.225
Размер потока                    : 1,02 Гбайт (75%)
Библиотека кодирования           : XviD 64

Аудио #1
Идентификатор                    : 1
Формат                           : AC-3
Формат/Информация                : Audio Coding 3
Расширение режима                : CM (complete main)
Идентификатор кодека             : 2000
Продолжительность                : 1 ч. 12 м.
Вид битрейта                     : Постоянный
Битрейт                          : 448 Кбит/сек
Каналы                           : 6 каналов
Расположение каналов             : Front: L C R, Side: L R, LFE
Частота                          : 48,0 КГц
Битовая глубина                  : 16 бит
Метод сжатия                     : С потерями
Размер потока                    : 231 Мбайт (16%)
Выравнивание                     : Разделение по промежуткам
Продолжительность промежутка     : 40  мс. (1,00 видеокадр)
Время предзагрузки промежутка    : 500 ms

Аудио #2
Идентификатор                    : 2
Формат                           : AC-3
Формат/Информация                : Audio Coding 3
Расширение режима                : CM (complete main)
Идентификатор кодека             : 2000
Продолжительность                : 1 ч. 12 м.
Вид битрейта                     : Постоянный
Битрейт                          : 224 Кбит/сек
Каналы                           : 1 канал
Расположение каналов             : Front: C
Частота                          : 48,0 КГц
Битовая глубина                  : 16 бит
Метод сжатия                     : С потерями
Размер потока                    : 115 Мбайт (8%)
Выравнивание                     : Разделение по промежуткам
Продолжительность промежутка     : 40  мс. (1,00 видеокадр)
Время предзагрузки промежутка    : 500 ms
Продолжительность: 01:17:17+01:11:27

Описание: Двухсерийный заключительный художественный фильм сериала. В основе его - поздние и малоизвестные рассказы Артура Конан Дойля: Палец инженера, Чертежи Брюса Партинстона, Его прощальный поклон, объединенные темой приближающейся мировой войны и борьбы легендарного сыщика с иностранными шпионами.

Качество: DVDRip
Формат: AVI
Видео кодек: XviD
Аудио кодек: AC3
Видео: 704x512 (1.38:1), 25 fps, XviD build 64 ~1844 kbps avg, 0.20 bit/pixel
Аудио#1: 48 kHz, AC3 Dolby Digital, 3/2 (L,C,R,l,r) + LFE ch, ~448.00 kbps avg
Аудио#2: 48 kHz, AC3 Dolby Digital, 1/0 (C) ch, ~224.00 kbps avg (Original)

Код:

Общее
Полное имя                       : D:\Films\Фильмы\Шерлок Холмс и доктор Ватсон - veteran1\Шерлок.Холмс.10.1986.Двадцатый.век.начинается.01.DVDRip.by.veteran1.avi
Формат                           : AVI
Формат/Информация                : Audio Video Interleave
Размер файла                     : 1,37 Гбайт
Продолжительность                : 1 ч. 17 м.
Общий поток                      : 2532 Кбит/сек
Программа кодирования            : VirtualDubMod 1.5.10.2 (build 2540/release)
Библиотека кодирования           : VirtualDubMod build 2540/release

Видео
Идентификатор                    : 0
Формат                           : MPEG-4 Visual
Профиль формата                  : Advanced Simple@L5
Параметр BVOP формата            : 1
Параметр QPel формата            : Нет
Параметр GMC формата             : Без точки перехода
Параметр матрицы формата         : Default (H.263)
Идентификатор кодека             : DX50
Идентификатор кодека/Подсказка   : DivX 5
Продолжительность                : 1 ч. 17 м.
Битрейт                          : 1846 Кбит/сек
Ширина                           : 704 пикс.
Высота                           : 512 пикс.
Соотношение сторон               : 1,375
Частота кадров                   : 25,000 кадр/сек
Цветовое пространство            : YUV
Подвыборка цветности             : 4:2:0
Битовая глубина                  : 8 бит
Тип развёртки                    : Прогрессивная
Метод сжатия                     : С потерями
Бит/(Пиксели*Кадры)              : 0.205
Размер потока                    : 1020 Мбайт (73%)
Библиотека кодирования           : XviD 64

Аудио #1
Идентификатор                    : 1
Формат                           : AC-3
Формат/Информация                : Audio Coding 3
Расширение режима                : CM (complete main)
Идентификатор кодека             : 2000
Продолжительность                : 1 ч. 17 м.
Вид битрейта                     : Постоянный
Битрейт                          : 448 Кбит/сек
Каналы                           : 6 каналов
Расположение каналов             : Front: L C R, Side: L R, LFE
Частота                          : 48,0 КГц
Битовая глубина                  : 16 бит
Метод сжатия                     : С потерями
Размер потока                    : 248 Мбайт (18%)
Выравнивание                     : Разделение по промежуткам
Продолжительность промежутка     : 40  мс. (1,00 видеокадр)
Время предзагрузки промежутка    : 500 ms

Аудио #2
Идентификатор                    : 2
Формат                           : AC-3
Формат/Информация                : Audio Coding 3
Расширение режима                : CM (complete main)
Идентификатор кодека             : 2000
Продолжительность                : 1 ч. 17 м.
Вид битрейта                     : Постоянный
Битрейт                          : 224 Кбит/сек
Каналы                           : 1 канал
Расположение каналов             : Front: C
Частота                          : 48,0 КГц
Битовая глубина                  : 16 бит
Метод сжатия                     : С потерями
Размер потока                    : 124 Мбайт (9%)
Выравнивание                     : Разделение по промежуткам
Продолжительность промежутка     : 40  мс. (1,00 видеокадр)
Время предзагрузки промежутка    : 500 ms
info [Профиль]  [ЛС] 

veteran1

Пол: Пол:Муж

Стаж: 4 года 11 месяцев

Сообщений: 142

Белоруссия
Рейтинг

post 14-Ноя-2015 14:44 (спустя 40 минут) [-]5[+]

[Цитировать] 

Рип делался не с осветленной версии, где кадр был обрезан. Встроена также оригинальная звуковая дорожка.
Приятного просмотра!

_________________
info [Профиль]  [ЛС] 

u_u

Пол: Пол:Муж

Стаж: 1 год 2 месяца

Сообщений: 13

Норфолк
Рейтинг

post 14-Ноя-2015 15:58 (спустя 1 час 14 минут) [-]4[+]

[Цитировать] 

Большое спасибо! Давно хотел пересмотреть)))
kolob_141
info [Профиль]  [ЛС] 

veteran1

Пол: Пол:Муж

Стаж: 4 года 11 месяцев

Сообщений: 142

Белоруссия
Рейтинг

post 14-Ноя-2015 16:45 (спустя 46 минут) [-]4[+]

[Цитировать] 

u_u, пожалуйста!

_________________
info [Профиль]  [ЛС] 

docklan

Пол: Пол:Муж

Стаж: 2 года 11 месяцев

Сообщений: 118

Ирландия
Рейтинг

post 14-Ноя-2015 19:56 (спустя 3 часа) [-]5[+]

[Цитировать] 

Лучший Шерлок Холмс.

_________________
Quis custodiet ipsos custodes?
info [Профиль]  [ЛС] 

23rd Report by Omega

Пол: Пол:Муж

Стаж: 6 лет 9 месяцев

Сообщений: 52

Австралия
Рейтинг

post 14-Ноя-2015 22:31 (спустя 2 часа 35 минут) [-]2[+]

[Цитировать] 

Да, по людски снято, смотреть всегда интересно.
info [Профиль]  [ЛС] 

IL3000

Пол: Пол:Муж

Стаж: 6 лет

Сообщений: 20

Россия
Рейтинг

post 15-Ноя-2015 00:08 (спустя 1 час 36 минут) [-]0[+]

[Цитировать] 

IMDB Какая оценка))))))????
info [Профиль]  [ЛС] 

slimsukcs

Стаж: 7 лет 2 месяца

Сообщений: 10

Украина
Рейтинг

post 15-Ноя-2015 15:21 (спустя 15 часов) [-]0[+]

[Цитировать] 

сяпки напомнил детство!!!перосмотрю под щищечку
info [Профиль]  [ЛС] 

Ahuramazda

Пол: Пол:Муж

Стаж: 3 года 6 месяцев

Сообщений: 67

Буркина Фасо
Рейтинг

post 15-Ноя-2015 16:05 (спустя 43 минуты) [-]1[+]

[Цитировать] 

Спасибо за раздачу. Давно хотел детство вспомнить.
info [Профиль]  [ЛС] 

veteran1

Пол: Пол:Муж

Стаж: 4 года 11 месяцев

Сообщений: 142

Белоруссия
Рейтинг

post 21-Ноя-2015 03:47 (спустя 5 дней) [-]0[+]

[Цитировать] 

Всем, пожалуйста!

_________________
info [Профиль]  [ЛС] 
Показать сообщения:    
Ответить на тему

Текущее время: 04-Дек 01:56

Часовой пояс: GMT + 4



Вы не можете начинать темы
Вы не можете отвечать на сообщения
Вы не можете редактировать свои сообщения
Вы не можете удалять свои сообщения
Вы не можете голосовать в опросах
Вы не можете прикреплять файлы к сообщениям
Вы не можете скачивать файлы