Ошибка

Назад во времени / Back in Time (Джейсон Арон) [2015, Документальный, семейный, история, HDRip] MVO [Paradox & Omskbird records]

Ответить на тему
 
Автор Сообщение

Xohllenok

Пол: Пол:Муж

Стаж: 1 год 9 месяцев

Сообщений: 339

Россия
Рейтинг

post 13-Ноя-2015 20:22 6[+]

[Цитировать] 

Назад во времени / Back in Time


    Год выпуска » 2015
    Страна » США, Великобритания, Канада / Jason Aron Media, Malka Media Group, Patchwork Media
    Жанр » Документальный, семейный, история
    Продолжительность » 01:34:37
    Перевод » Профессиональный (многоголосый) Paradox & Omskbird records
    Субтитры » Отсутствуют
В ролях
» Майкл Дж. Фокс, Кристофер Ллойд, Лиа Томпсон, Клодия Уэллс, Стивен Спилберг, Роберт Земекис, Джеффри Вайсман, Джеймс Толкан, Боб Гейл, Хьюи Льюис
Режиссёр
» Джейсон Арон
ОПИСАНИЕ:
» Актеры, съемочная группа и фанаты рассуждают на тему того, какой вклад внесла классическая трилогия «Назад в будущее» в нашу культуру.
    Качество » HDRip
    Формат » AVI
    Видео кодек » XviD
    Аудио кодек » AC3
    Видео » XviD at 1 616 kb/s, 720x400 at 23.976 fps
    Аудио » AC3, 448 kb/s, 6 каналов, 48.0 КгцРусский

СЭМПЛ:
Полное имя : \Nazad.vo.Vremeni.2015.P.HDRip.Pardox_Omskbird.avi
Формат : AVI
Формат/Информация : Audio Video Interleave
Размер файла : 1,37 Гбайт
Продолжительность : 1 ч. 34 м.
Общий поток : 2074 Кбит/сек
Программа кодирования : VirtualDubMod 1.5.10.2 (build 2540/release)
Библиотека кодирования : VirtualDubMod build 2540/release
Видео
Идентификатор : 0
Формат : MPEG-4 Visual
Профиль формата : Advanced Simple@L5
Параметр BVOP формата : 2
Параметр QPel формата : Нет
Параметр GMC формата : Без точки перехода
Параметр матрицы формата : Default (MPEG)
Идентификатор кодека : XVID
Идентификатор кодека/Подсказка : XviD
Продолжительность : 1 ч. 34 м.
Битрейт : 1617 Кбит/сек
Ширина : 720 пикселей
Высота : 400 пикселей
Соотношение сторон : 16:9
Частота кадров : 23,976 кадра/сек
Цветовое пространство : YUV
Субдискретизация насыщенности : 4:2:0
Битовая глубина : 8 бит
Тип развёртки : Прогрессивная
Метод сжатия : С потерями
Бит/(Пиксели*Кадры) : 0.234
Размер потока : 1,07 Гбайт (78%)
Библиотека кодирования : XviD 1.2.1 (UTC 2008-12-04)
Аудио
Идентификатор : 1
Формат : AC-3
Формат/Информация : Audio Coding 3
Расширение режима : CM (complete main)
Параметр Endianness формата : Big
Идентификатор кодека : 2000
Продолжительность : 1 ч. 34 м.
Вид битрейта : Постоянный
Битрейт : 448 Кбит/сек
Каналы : 6 каналов
Расположение каналов : Front: L C R, Side: L R, LFE
Частота : 48,0 КГц
Метод сжатия : С потерями
Размер потока : 303 Мбайт (22%)
Выравнивание : Разделение по промежуткам
Продолжительность промежутка : 42 мс. (1,00 видеокадр)
Время предзагрузки промежутка : 500 мс.
          
info [Профиль]  [ЛС] 

post 13-Ноя-2015 21:14 (спустя 52 минуты) [-]0[+]

Топик был перенесен из форума Новинки 2014-2015 (Rips) в форум Документальные фильмы и телепередачи

BZzz
 

Scorpion2142

Пол: Пол:Муж

Стаж: 4 года 11 месяцев

Сообщений: 131

Россия
Рейтинг

post 13-Ноя-2015 21:31 (спустя 1 час 9 минут) [-]-28[+]

[Цитировать] 

"Вклад в НАШУ культуру"
info [Профиль]  [ЛС] 

Madddog

Стаж: 2 года 10 месяцев

Сообщений: 10

Рейтинг

post 13-Ноя-2015 21:39 (спустя 7 минут) [-]7[+]

[Цитировать] 

Scorpion2142 писал(а):

"Вклад в НАШУ культуру"
человечью kolob_129
info [Профиль]  [ЛС] 

Daaniel_vol

Пол: Пол:Муж

Стаж: 3 года 8 месяцев

Сообщений: 3

Финляндия
Рейтинг

post 13-Ноя-2015 21:40 (спустя 1 минута) [-]11[+]

[Цитировать] 

Scorpion2142 писал(а):

"Вклад в НАШУ культуру"
вклад да ещё какой

_________________
skype: daaniel536515
info [Профиль]  [ЛС] 

RoyTarg

Пол: Пол:Муж

Стаж: 4 года 1 месяц

Сообщений: 32

Россия
Рейтинг

post 13-Ноя-2015 21:42 (спустя 2 минуты) [-]1[+]

[Цитировать] 

О, благодарствую!

_________________
: ) : Намастэ!
info [Профиль]  [ЛС] 

kirillre4

Стаж: 3 года 8 месяцев

Сообщений: 41

Рейтинг

post 13-Ноя-2015 23:00 (спустя 1 час 17 минут) [-]13[+]

[Цитировать] 

Я по названию, подумал, что Asylum отсняли очередной кинохит.
info [Профиль]  [ЛС] 

DeusNeko

Пол: Пол:Муж

Стаж: 7 лет 2 месяца

Сообщений: 1381

Предупреждений: 1

Россия
Рейтинг

post 13-Ноя-2015 23:28 (спустя 27 минут) [-]7[+]

[Цитировать] 

Scorpion2142 писал(а):

"Вклад в НАШУ культуру"
Да не будь ты таким квадратным.

_________________
Matrix Mini-I Pro -> Questyle CMA800R -> Sennheiser HD 280/PSB M4U 1/Beyerdynamic DT 770 Pro/Beyerdynamic T90/HiFiMAN HE-400
info [Профиль]  [ЛС] 

Valington

Пол: Пол:Муж

Стаж: 7 лет 3 месяца

Сообщений: 523

Исландия
Рейтинг

post 13-Ноя-2015 23:34 (спустя 6 минут) [-]4[+]

[Цитировать] 

второй скрин из фильма "Большой переполох" если не ошибаюсь с Беверли Д’Анджело
Scorpion2142
А скажешь кто в 90-е рос этот фильм не смотрели,да его перед каждым новым годом крутили так же как "ирония судьбы или с легким паром". Т.ч. даже в Нашу культуру фильм некоторые вещи донес.

_________________
Win 10 Pro 64x, intel i5-3470 3.20GHz, 8GB RAM, Ati Radeon HD 6950 2GB + CrossFire Ati Radeon HD 6950 1GB (8х\8х)
info [Профиль]  [ЛС] 

Xohllenok

Пол: Пол:Муж

Стаж: 1 год 9 месяцев

Сообщений: 339

Россия
Рейтинг

post 13-Ноя-2015 23:40 (спустя 6 минут) [-]-1[+]

[Цитировать] 

парни а чё!!! доску придумали как у них!? кросы тоже придумали! осталось Делориан как там замутить и всё!

_________________
info [Профиль]  [ЛС] 

Dr4g0n1k

Пол: Пол:Муж

Стаж: 3 года 2 месяца

Сообщений: 67

Россия
Рейтинг

post 15-Ноя-2015 11:11 (спустя 1 день 11 часов) [-]0[+]

[Цитировать] 

вырос на этом шедевре!

_________________
Intel Core i5 2500K 3.3Mhz (4.0Mhz), ASRock LGA1155 Z68 Pro3 Gen3, DIMM DDR3 8182MB PC10666 1333Mhz Hynix orig, AMD Radeon HD 6930 DDR5 2048MB 256bit, Chieftec 550W
info [Профиль]  [ЛС] 

RC_Gremlin

Пол: Пол:Муж

Стаж: 7 лет 8 месяцев

Сообщений: 6889

США
Рейтинг

post 29-Ноя-2015 15:47 (спустя 14 дней) [-]0[+]

[Цитировать] 

Как фокс плох( Этот фильм давал мечту и ведь даже блин видеосвязь в телеках есть уже, почти всё кроме летающих машин стало нормой.

_________________
Безалкогольное пиво - первый шаг к резиновой женщине!
info [Профиль]  [ЛС] 
Показать сообщения:    
Ответить на тему

Текущее время: 05-Дек 12:29

Часовой пояс: GMT + 4



Вы не можете начинать темы
Вы не можете отвечать на сообщения
Вы не можете редактировать свои сообщения
Вы не можете удалять свои сообщения
Вы не можете голосовать в опросах
Вы не можете прикреплять файлы к сообщениям
Вы не можете скачивать файлы