Ошибка

Серафим Конца Времён: Битва в Нагое/ Owari no Seraph: Nagoya Kessen Hen/ Seraph of the End: Battle in Nagoya [TV-2] [1-12 из 12] [2015] [драма, сверхъестественное, сёнен, вампиры] [HDTVRip] [720p] [Субтитры (JAP)]

Ответить на тему
 
Автор Сообщение

anoningen

Стаж: 3 года 6 месяцев

Сообщений: 326

Самоа
Рейтинг

post 08-Ноя-2015 19:00 1[+]

[Цитировать] 

Серафим Конца Времён: Битва в Нагое
Последний Серафим: Битва в Нагое |Owari no Seraph: Nagoya Kessen Hen | Seraph of the End: Battle in Nagoya | 終わりのセラフ 名古屋決戦編

Год выпуска:
2015 г.
Тип: TV
Жанр: драма, сверхъестественное, сёнен, вампиры
Режиссер: Токудо Дайсукэ
Автор оригинала: Кагами Такая
Студия:
Продолжительность: 12 эп. по 25 мин
Русские субтитры: ASS, внешним файлом

Перевод: Nesitach
Редактор/Тайм-код/Оформление: Stan WarHammer
Тайм-код: Holydarkness

Описание: Юичиро воссоединяется с Микаэлой после битвы в Синдзюку. Но есть проблема: Микаэла — теперь вампир. Чтобы защитить новую семью и старого друга, Юичиро необходимо обрести достаточно знаний и мощи. Он ищет способы обратить вампира обратно в человека и вместе с этим усердно тренирует контроль над своим демоническим оружием — Ашурамару.
Тем временем Курэто сообщает Глену шокирующую новость: в ближайший месяц главное объединение вампиров планирует атаку на Токио. Чтобы дать достойный отпор вампирам, Курэто приказывает Глену отправиться в Нагою, где их ждет подкрепление. На плечах новообразованного отряда, носящего имя его лидера, Глена Ичиносэ, благородная миссия — истребить род вампиров, и орудия их готовы к бою!


Автор рипа: Ohys-Raws
Качество: HDTVRip
Формат видео: MPEG-4
Видео: AVC, 8 бит, 1280x720; 23.976 кадра/сек; 1833 Кбит/сек, (16:9)
Аудио: AAC, 48.0 КГц, Переменный ~201-254 Кбит/сек, 2 канала
Общее
Полное имя : G:\Anime\Owari no Seraph 2\[Ohys-Raws] Owari no Seraph 2 - 01 (MX 1280x720 x264 AAC).mp4
Формат : MPEG-4
Профиль формата : Base Media
Идентификатор кодека : isom
Размер файла : 350 Мбайт
Продолжительность : 24 м.
Режим общего битрейта : Переменный
Общий поток : 2038 Кбит/сек
Дата кодирования : UTC 2015-10-10 13:49:04
Дата пометки : UTC 2015-10-10 13:49:04

Видео
Идентификатор : 1
Формат : AVC
Формат/Информация : Advanced Video Codec
Профиль формата : Main@L4.1
Параметр CABAC формата : Да
Параметр ReFrames формата : 4 кадра
Идентификатор кодека : avc1
Идентификатор кодека/Информация : Advanced Video Coding
Продолжительность : 24 м.
Битрейт : 1833 Кбит/сек
Максимальный битрейт : 12,5 Мбит/сек
Ширина : 1280 пикселей
Высота : 720 пикселей
Соотношение сторон : 16:9
Режим частоты кадров : Постоянный
Частота кадров : 23,976 кадра/сек
Цветовое пространство : YUV
Субдискретизация насыщенности : 4:2:0
Битовая глубина : 8 бит
Тип развёртки : Прогрессивная
Бит/(Пиксели*Кадры) : 0.083
Размер потока : 315 Мбайт (90%)
Библиотека кодирования : x264 core 148 r2597 e86f3a1
Настройки программы : cabac=1 / ref=3 / deblock=1:0:0 / analyse=0x1:0x111 / me=hex / subme=7 / psy=1 / psy_rd=1.00:0.00 / mixed_ref=1 / me_range=16 / chroma_me=1 / trellis=1 / 8x8dct=0 / cqm=0 / deadzone=21,11 / fast_pskip=1 / chroma_qp_offset=-2 / threads=12 / lookahead_threads=2 / sliced_threads=0 / nr=0 / decimate=1 / interlaced=0 / bluray_compat=0 / constrained_intra=0 / bframes=3 / b_pyramid=2 / b_adapt=1 / b_bias=0 / direct=1 / weightb=1 / open_gop=0 / weightp=2 / keyint=240 / keyint_min=1 / scenecut=40 / intra_refresh=0 / rc_lookahead=40 / rc=crf / mbtree=1 / crf=20.0 / qcomp=0.60 / qpmin=0 / qpmax=69 / qpstep=4 / ip_ratio=1.40 / aq=1:1.50
Дата кодирования : UTC 2015-10-10 13:49:04
Дата пометки : UTC 2015-10-10 13:49:06
Цветовой диапазон : Limited
Основные цвета : BT.709
Характеристики трансфера : BT.709
Коэффициенты матрицы : BT.709

Аудио
Идентификатор : 2
Формат : AAC
Формат/Информация : Advanced Audio Codec
Профиль формата : LC
Идентификатор кодека : 40
Продолжительность : 24 м.
Вид битрейта : Переменный
Битрейт : 201 Кбит/сек
Максимальный битрейт : 254 Кбит/сек
Каналы : 2 канала
Расположение каналов : Front: L R
Частота : 48,0 КГц
Метод сжатия : С потерями
Размер потока : 34,6 Мбайт (10%)
Язык : Japanese
Дата кодирования : UTC 2015-10-10 13:39:09
Дата пометки : UTC 2015-10-10 13:49:06
26.12.2015 Добавлена 12 серия
info [Профиль]  [ЛС] 
Показать сообщения:    
Ответить на тему

Текущее время: 07-Дек 22:27

Часовой пояс: GMT + 4



Вы не можете начинать темы
Вы не можете отвечать на сообщения
Вы не можете редактировать свои сообщения
Вы не можете удалять свои сообщения
Вы не можете голосовать в опросах
Вы не можете прикреплять файлы к сообщениям
Вы не можете скачивать файлы