Ошибка

Исчезновение Юки Нагато / Nagato Yuki-chan no Shoushitsu: Owarenai Natsuyasu (Вада Дзюнъити) [OVA] [01 из 01] [2015] [романтика, комедия, повседневность, школа] [BDRip] [1080p] [Любительский, JAP+SUB]

Ответить на тему
 
Автор Сообщение

Vladdrako

Пол: Пол:Муж

Стаж: 2 года 11 месяцев

Сообщений: 25

Япония
Рейтинг

post 06-Ноя-2015 21:50 3[+]

[Цитировать] 


Год выпуска: 2015
Страна: Япония
Жанр: романтика, комедия, повседневность, школа
Тип: OVA
Продолжительность: 1 эп. - 25 мин.
Выпуск: 26.10.2015
Перевод:
  • русские субтитры от Shirome (полные/вспомогательные)
    перевод/оформление Rinon Ninqueon
  • русские субтитры от Hiruzawa (SKH-Sub) (полные/вспомогательные)
Русская озвучка:
  • трёхголосая от NIKITOS & Viki & Лизавета (SHIZA Project)

Режиссер: Вада Дзюнъити
Студия: Satelight
Описание:
Бонус к эксклюзивному ограниченному изданию девятого тома манги.
Обычная девочка по имени Юки Нагато и ее друг Кён состоят в одном литературном кружке Северной старшей школы. Застенчивая по натуре Юки никак не может признаться Кёну в своих чувствах, а тут еще лучшая подруга Асакура Рёко постоянно подливает масла в огонь, из-за чего то и дело возникают забавные ситуации...
Информационные ссылки: World Art || MAL
Качество: BDRip
Энкод: Vladdrako [Beatrice-Raws]
Тип видео: без хардсаба, без линковки
Формат: MKV
Видео: x264, (10bit), 1920x1080, ~ 5799Kbps, 23,976 fps
Аудио JAP: FLAC, 24bit, 1425kbps, 48000Hz, 2ch
Аудио RUS: FLAC, 16bit, 629kbps, 48000Hz, 2ch
 
Общее
Уникальный идентификатор : 193180511880679440376419128366482081063 (0x91553697926FDC1AB0183F4D1C544527)
Полное имя : K:\[Beatrice-Raws] Nagato Yuki-chan no Shoushitsu OVA [BDRip 1920x1080 x264 FLAC]\[Beatrice-Raws] Nagato Yuki-chan no Shoushitsu OVA [BDRip 1920x1080 x264 FLAC].mkv
Формат : Matroska
Версия формата : Version 4 / Version 2
Размер файла : 1,23 Гбайт
Продолжительность : 24 м.
Режим общего битрейта : Переменный
Общий поток : 7224 Кбит/сек
Дата кодирования : UTC 2016-01-25 11:19:34
Программа кодирования : mkvmerge v8.8.0 ('Wind at my back') 64bit
Библиотека кодирования : libebml v1.3.3 + libmatroska v1.4.4

Видео
Идентификатор : 1
Формат : AVC
Формат/Информация : Advanced Video Codec
Профиль формата : High 10@L5
Параметр CABAC формата : Да
Параметр ReFrames формата : 4 кадра
Идентификатор кодека : V_MPEG4/ISO/AVC
Продолжительность : 24 м.
Битрейт : 5797 Кбит/сек
Ширина : 1920 пикселей
Высота : 1080 пикселей
Соотношение сторон : 16:9
Режим частоты кадров : Постоянный
Частота кадров : 23,976 (24000/1001) кадра/сек
Цветовое пространство : YUV
Субдискретизация насыщенности : 4:2:0
Битовая глубина : 10 бит
Тип развёртки : Прогрессивная
Бит/(Пиксели*Кадры) : 0.117
Размер потока : 1008 Мбайт (80%)
Заголовок : BDRip by Vladdrako
Библиотека кодирования : x264 core 148 (DJATOM's build)
Настройки программы : cabac=1 / ref=4 / deblock=1:1:-1 / analyse=0x3:0x133 / me=umh / subme=9 / psy=1 / fade_compensate=0.00 / psy_rd=1.00:0.00 / mixed_ref=1 / me_range=32 / chroma_me=1 / trellis=2 / 8x8dct=1 / cqm=0 / deadzone=21,11 / fast_pskip=1 / chroma_qp_offset=-2 / threads=6 / lookahead_threads=1 / sliced_threads=0 / nr=0 / decimate=1 / interlaced=0 / bluray_compat=0 / constrained_intra=0 / bframes=9 / b_pyramid=2 / b_adapt=2 / b_bias=0 / direct=1 / weightb=1 / open_gop=0 / weightp=2 / keyint=250 / keyint_min=23 / scenecut=40 / intra_refresh=0 / rc=crf / mbtree=0 / crf=15.0000 / qcomp=0.72 / qpmin=0 / qpmax=81 / qpstep=4 / ip_ratio=1.40 / pb_ratio=1.30 / aq=1:0.85
Язык : Japanese
Default : Да
Forced : Нет
Цветовой диапазон : Limited
Основные цвета : BT.709
Характеристики трансфера : BT.709
Коэффициенты матрицы : BT.709

Аудио
Идентификатор : 2
Формат : FLAC
Формат/Информация : Free Lossless Audio Codec
Идентификатор кодека : A_FLAC
Продолжительность : 24 м.
Вид битрейта : Переменный
Битрейт : 1425 Кбит/сек
Каналы : 2 канала
Расположение каналов : Front: L R
Частота : 48,0 КГц
Частота кадров : 11,719 кадров/сек (4096 spf)
Битовая глубина : 24 бит
Размер потока : 248 Мбайт (20%)
Заголовок : LPCM->FLAC
Библиотека кодирования : libFLAC 1.3.0 (UTC 2013-05-26)
Язык : Japanese
Default : Да
Forced : Нет

Меню
00:00:00.000 : :Preview
00:00:08.006 : :Avant
00:00:54.054 : :OP
00:02:24.018 : :Part A
00:12:15.024 : :Part B
00:22:48.075 : :ED
01. http://tapochek.net/viewtopic.php?t=177417 - ТВ сезон
02. OVA - эта раздача
info [Профиль]  [ЛС] 

precentor frost

Пол: Пол:Муж

Стаж: 7 лет 8 месяцев

Сообщений: 669

Рейтинг

post 06-Ноя-2015 22:09 (спустя 18 минут) [-]1[+]

[Цитировать] 

реактивный Влад)))

_________________
Cилы добра, света и справедливости - это три совершенно разные фракции.
info [Профиль]  [ЛС] 

Vladdrako

Пол: Пол:Муж

Стаж: 2 года 11 месяцев

Сообщений: 25

Япония
Рейтинг

post 06-Ноя-2015 22:49 (спустя 40 минут) [-]1[+]

[Цитировать] 

precentor frost писал(а):

реактивный Влад)))
Ну так моя ленивая задница больше ничем не занята)) kolob_149
info [Профиль]  [ЛС] 

Ritsu

Пол: Пол:Муж

Стаж: 5 лет 5 месяцев

Сообщений: 856

Австралия
Рейтинг

post 07-Ноя-2015 04:32 (спустя 5 часов) [-]1[+]

[Цитировать] 

Огромное спасибо.

_________________
Флудите вместе с Рицу и будет вам счастье! ^__^

"...Зажжем рок в этой дыре!.."
info [Профиль]  [ЛС] 

Vladdrako

Пол: Пол:Муж

Стаж: 2 года 11 месяцев

Сообщений: 25

Япония
Рейтинг

post 09-Ноя-2015 14:49 (спустя 2 дня 10 часов) [-]0[+]

[Цитировать] 

Торрент обновлен! Добавлены субтитры от Shirome
info [Профиль]  [ЛС] 

Vladdrako

Пол: Пол:Муж

Стаж: 2 года 11 месяцев

Сообщений: 25

Япония
Рейтинг

post 21-Ноя-2015 21:04 (спустя 12 дней) [-]0[+]

[Цитировать] 

Торрент обновлен! Обновлены субтитры от Shirome
info [Профиль]  [ЛС] 

Vladdrako

Пол: Пол:Муж

Стаж: 2 года 11 месяцев

Сообщений: 25

Япония
Рейтинг

post 25-Янв-2016 15:55 (спустя 2 месяца 3 дня) [-]0[+]

[Цитировать] 

Торрент обновлен! Переделал рип.
info [Профиль]  [ЛС] 

dante3732

Пол: Пол:Муж

Стаж: 4 года 10 месяцев

Сообщений: 104

Россия
Рейтинг

post 25-Янв-2016 19:40 (спустя 3 часа) [-]1[+]

[Цитировать] 

Это аниме не связано с харухи судзуми?
info [Профиль]  [ЛС] 

marko

Стаж: 6 лет 2 месяца

Сообщений: 547

Рейтинг

post 26-Янв-2016 01:06 (спустя 5 часов) [-]0[+]

[Цитировать] 

dante3732
ну так это можно сказать продолжение . все герои на месте .

_________________
info [Профиль]  [ЛС] 

Vladdrako

Пол: Пол:Муж

Стаж: 2 года 11 месяцев

Сообщений: 25

Япония
Рейтинг

post 03-Июн-2016 20:30 (спустя 4 месяца 8 дней) [-]0[+]

[Цитировать] 

Торрент обновлен! Добавлена озвучка от SHIZA Project
info [Профиль]  [ЛС] 
Показать сообщения:    
Ответить на тему

Текущее время: 09-Дек 07:56

Часовой пояс: GMT + 4



Вы не можете начинать темы
Вы не можете отвечать на сообщения
Вы не можете редактировать свои сообщения
Вы не можете удалять свои сообщения
Вы не можете голосовать в опросах
Вы не можете прикреплять файлы к сообщениям
Вы не можете скачивать файлы