Ошибка

Первое свидание Райли? (Короткометражный фильм "Головоломка") / Riley's First Date? (Inside Out Short) (Джош Кули / Josh Cooley) [2015, мультфильм, семейный, комедия, короткометражка, BDRip 720p] Dub + Eng + Sub от R.G.TNClub

Ответить на тему
 
Автор Сообщение

R.G. TNClub

Стаж: 2 года 3 месяца

Сообщений: 515

Рейтинг

post 01-Ноя-2015 17:18 0[+]

[Цитировать] 

Первое свидание Райли? (Короткометражный фильм "Головоломка") / Riley's First Date? (Inside Out Short)
«Нет слов, одни эмоции»

Страна: США
Жанр: мультфильм, семейный, комедия, короткометражка
Год выпуска: 2015
Продолжительность: 00:04:41
Перевод:
  • Профессиональный (дублированный) [Лицензия EUR] - русский
Субтитры: русские, английские
Оригинальная дорожка: английский
Главы: есть

Режиссер: Джош Кули / Josh Cooley
В ролях: Pete Docter, Ben Cox, Kyle MacLachlan, Diane Lane, Kaitlyn Dias, Josh Cooley, Sherry Lynn, Bill Hader, Flea, Paula Pell, Laraine Newman, Lori Alan, Patrick Seitz, Amy Poehler, Phyllis Smith, Lewis Black, Mindy Kaling, Gregg Berger, Keith Ferguson, Mona Marshall


Описание: "Первое свидание Райли" - это короткометражка, которая выйдет на BluRay вместе с "Головоломкой", только действия в коротыше происходят спустя год после событий полнометражки.
По сюжету, домой к 12-летней Райли приходит парень по имени Джордан, чтобы пригласить ее на свидание. Папу вмиг одолевает паника, мама старается казаться крутой и современной, а в голове Райли главной эмоцией становится Брезгливость.

Прежняя команда озвучки в полном составе вернется к своим ролям, а голосом Джордана станет молодой актер Бен Кокс, впервые участвующий в озвучке мультфильма.

Качество видео: BDRip 720p
Рип от L!
Формат видео: MKV
Видео: MPEG-4 AVC Video ~ 4.4 Mbps 1280 x 720 / 23,976 fps / 16:9 / High Profile 4.1
Аудио:
  • Russian: 48 kHz, AC3 Dolby Digital, 3/2 (L,C,R,l,r) + LFE ch, 640 kbps
  • English: 48 kHz, DTS, 3/2 (L,C,R,l,r) + LFE ch, ~1509 kbps
Формат субтитров: PGS

Раздача от &
INSIDE_OUT Thx HDClub
Unique ID : 241265980622574046222401770859432283840 (0xB582233DF7A3B471A0ECDAC2A5088EC0)
Complete name : D:\L#TNClub\Rileys.First.Date.2015.BluRay.720p.DD5.1.x264-TNClub.mkv
Format : Matroska
Format version : Version 4 / Version 2
File size : 223 MiB
Duration : 4mn 40s
Overall bit rate : 6 661 Kbps
Movie name : Rileys.First.Date.2015.BluRay.720p.DD5.1.x264-TNClub
Encoded date : UTC 2015-11-01 12:56:57
Writing application : mkvmerge v8.3.0 ('Over the Horizon') 32bit
Writing library : libebml v1.3.1 + libmatroska v1.4.2
Attachements : inside-out-blu-ray-cover-art.jpg
DURATION : 00:04:27.851000000
NUMBER_OF_FRAMES : 148
NUMBER_OF_BYTES : 453095
_STATISTICS_WRITING_APP : mkvmerge v8.3.0 ('Over the Horizon') 32bit
_STATISTICS_WRITING_DATE_UTC : 2015-11-01 12:56:57
_STATISTICS_TAGS : BPS DURATION NUMBER_OF_FRAMES NUMBER_OF_BYTES

Video
ID : 1
Format : AVC
Format/Info : Advanced Video Codec
Format profile : High@L4.1
Format settings, CABAC : Yes
Format settings, ReFrames : 9 frames
Codec ID : V_MPEG4/ISO/AVC
Duration : 4mn 40s
Bit rate : 4 379 Kbps
Width : 1 280 pixels
Height : 720 pixels
Display aspect ratio : 16:9
Frame rate mode : Constant
Frame rate : 23.976 fps
Color space : YUV
Chroma subsampling : 4:2:0
Bit depth : 8 bits
Scan type : Progressive
Bits/(Pixel*Frame) : 0.198
Stream size : 147 MiB (66%)
Title : Rileys.First.Date.2015.BluRay.720p.DD5.1.x264-TNClub
Writing library : x264 core 146 r2538 121396c
Encoding settings : cabac=1 / ref=9 / deblock=1:-3:-2 / analyse=0x3:0x133 / me=umh / subme=11 / psy=1 / psy_rd=1.05:0.10 / mixed_ref=1 / me_range=32 / chroma_me=1 / trellis=2 / 8x8dct=1 / cqm=0 / deadzone=21,11 / fast_pskip=0 / chroma_qp_offset=-4 / threads=6 / lookahead_threads=1 / sliced_threads=0 / nr=0 / decimate=1 / interlaced=0 / bluray_compat=0 / constrained_intra=0 / bframes=8 / b_pyramid=2 / b_adapt=2 / b_bias=0 / direct=1 / weightb=1 / open_gop=0 / weightp=2 / keyint=230 / keyint_min=21 / scenecut=40 / intra_refresh=0 / rc_lookahead=60 / rc=crf / mbtree=0 / crf=16.5 / qcomp=0.70 / qpmin=0 / qpmax=69 / qpstep=4 / vbv_maxrate=30000 / vbv_bufsize=40000 / crf_max=0.0 / nal_hrd=none / filler=0 / ip_ratio=1.35 / pb_ratio=1.25 / aq=2:0.90
Language : English
Default : Yes
Forced : No
DURATION : 00:04:40.614000000
NUMBER_OF_FRAMES : 6728
NUMBER_OF_BYTES : 155996498
_STATISTICS_WRITING_APP : mkvmerge v8.3.0 ('Over the Horizon') 32bit
_STATISTICS_WRITING_DATE_UTC : 2015-11-01 12:56:57
_STATISTICS_TAGS : BPS DURATION NUMBER_OF_FRAMES NUMBER_OF_BYTES

Audio #1
ID : 2
Format : AC-3
Format/Info : Audio Coding 3
Mode extension : CM (complete main)
Format settings, Endianness : Big
Codec ID : A_AC3
Duration : 4mn 40s
Bit rate mode : Constant
Bit rate : 640 Kbps
Channel(s) : 6 channels
Channel positions : Front: L C R, Side: L R, LFE
Sampling rate : 48.0 KHz
Compression mode : Lossy
Stream size : 21.4 MiB (10%)
Title : DD5.1@640
Language : Russian
Default : Yes
Forced : No

Audio #2
ID : 3
Format : DTS
Format/Info : Digital Theater Systems
Mode : 16
Format settings, Endianness : Big
Codec ID : A_DTS
Duration : 4mn 40s
Bit rate mode : Constant
Bit rate : 1 509 Kbps
Channel(s) : 6 channels
Channel positions : Front: L C R, Side: L R, LFE
Sampling rate : 48.0 KHz
Bit depth : 24 bits
Compression mode : Lossy
Stream size : 50.5 MiB (23%)
Default : No
Forced : No

Text #1
ID : 4
Format : PGS
Muxing mode : zlib
Codec ID : S_HDMV/PGS
Codec ID/Info : Picture based subtitle format used on BDs/HD-DVDs
Language : Russian
Default : Yes
Forced : No

Text #2
ID : 5
Format : PGS
Muxing mode : zlib
Codec ID : S_HDMV/PGS
Codec ID/Info : Picture based subtitle format used on BDs/HD-DVDs
Language : English
Default : No
Forced : No
Пожалуйста, оставайтесь на раздаче как можно дольше!
Релиз специально для Tapochek.net
Все раздачи R.G.TNClub


info [Профиль]  [ЛС] 

post 01-Ноя-2015 19:09 (спустя 1 час 50 минут) [-]0[+]

Сообщения из этой темы были выделены в отдельный топик 1

L
 
Показать сообщения:    
Ответить на тему

Текущее время: 09-Дек 15:38

Часовой пояс: GMT + 4



Вы не можете начинать темы
Вы не можете отвечать на сообщения
Вы не можете редактировать свои сообщения
Вы не можете удалять свои сообщения
Вы не можете голосовать в опросах
Вы не можете прикреплять файлы к сообщениям
Вы не можете скачивать файлы