Ошибка

Головоломка / Inside Out (Пит Доктер, Роналдо Дель Кармен) [2015, мультфильм, драма, комедия, семейный, HDRip] iTunes

Ответить на тему
 
Автор Сообщение

Prov1zoR

Пол: Пол:Муж

Стаж: 4 года 2 месяца

Сообщений: 101

Россия
Рейтинг

post 30-Окт-2015 06:16 1[+]

[Цитировать] 


Головоломка / Inside Out

Год выхода: 2015
Выпущено: США / Pixar Animation Studios, Walt Disney Pictures
Жанр: мультфильм, драма, комедия, семейный
Продолжительность: 01:34:19
Озвучивание: Дублированное [цифровая лицензия iTunes]

Режиссер: Пит Доктер, Роналдо Дель Кармен

Роли озвучивали: Льюис Блэк, Минди Кейлинг, Билл Хейдер, Эми Полер, Филлис Смит, Ричард Кайнд, Кейтлин Диас, Дайан Лэйн, Кайл МакЛоклен, Пола Паундстон

О фильме: Райли — обычная 11-летняя школьница, и, как у каждого из нас, ее поведение определяют пять базовых эмоций: Радость, Печаль, Страх, Гнев и Брезгливость. Эмоции живут в сознании девочки и каждый день помогают ей справляться с проблемами, руководя всеми ее поступками. До поры до времени эмоции живут дружно, но вдруг оказывается, что Райли и ее родителям предстоит переезд из небольшого уютного городка в шумный и людный мегаполис. Каждая из эмоций считает, что именно она лучше прочих знает, что нужно делать в этой непростой ситуации, и в голове у девочки наступает полная неразбериха. Чтобы наладить жизнь в большом городе, освоиться в новой школе и подружиться с одноклассниками, эмоциям Райли предстоит снова научиться работать сообща.
Топ250: 95

Качество: HDRip
Формат: AVI
Видео: 720x400 (1.80:1), 23.976 fps, XviD build 50 ~1680 kbps avg, 0.24 bit/pixel
Аудио: 48 kHz, AC3 Dolby Digital, 3/2 (L,C,R,l,r) + LFE ch, ~384 kbps

Сэмпл - http://sendfile.su/1165948
General
Complete name : E:\Кино\Раздача\Головоломка.avi
Format : AVI
Format/Info : Audio Video Interleave
File size : 1.37 GiB
Duration : 1h 34mn
Overall bit rate : 2 074 Kbps
Writing application : VirtualDubMod 1.5.10.2 (build 2540/release)
Writing library : VirtualDubMod build 2540/release

Video
ID : 0
Format : MPEG-4 Visual
Format profile : Advanced Simple@L5
Format settings, BVOP : 2
Format settings, QPel : No
Format settings, GMC : No warppoints
Format settings, Matrix : Default (MPEG)
Codec ID : XVID
Codec ID/Hint : XviD
Duration : 1h 34mn
Bit rate : 1 681 Kbps
Width : 720 pixels
Height : 400 pixels
Display aspect ratio : 16:9
Frame rate : 23.976 fps
Color space : YUV
Chroma subsampling : 4:2:0
Bit depth : 8 bits
Scan type : Progressive
Compression mode : Lossy
Bits/(Pixel*Frame) : 0.243
Stream size : 1.11 GiB (81%)
Writing library : XviD 1.2.1 (UTC 2008-12-04)

Audio
ID : 1
Format : AC-3
Format/Info : Audio Coding 3
Mode extension : CM (complete main)
Format settings, Endianness : Big
Codec ID : 2000
Duration : 1h 34mn
Bit rate mode : Constant
Bit rate : 384 Kbps
Channel(s) : 6 channels
Channel positions : Front: L C R, Side: L R, LFE
Sampling rate : 48.0 KHz
Bit depth : 16 bits
Compression mode : Lossy
Stream size : 259 MiB (19%)
Alignment : Split accross interleaves
Interleave, duration : 42 ms (1.00 video frame)
Interleave, preload duration : 500 ms
info [Профиль]  [ЛС] 

post 30-Окт-2015 21:53 (спустя 15 часов) [-]0[+]

Топик был перенесен из форума Анонсы в форум Новинки 2014-2015 (Rips)

koss555
 

judikator

Пол: Пол:Муж

Стаж: 4 года 1 месяц

Сообщений: 104

Рейтинг

post 31-Окт-2015 00:12 (спустя 17 часов) [-]-2[+]

[Цитировать] 

где сиды?
info [Профиль]  [ЛС] 

punisher509

Пол: Пол:Муж

Стаж: 4 года 8 месяцев

Сообщений: 56

СССР
Рейтинг

post 23-Ноя-2015 18:45 (спустя 23 дня) [-]3[+]

[Цитировать] 

Супер! Вообще концепция и взгляд на человеческие эмоции представлены вполне оригинально! Фильм и взрослым должен понравиться) Очень понравилось!
info [Профиль]  [ЛС] 

post 05-Фев-2016 01:10 (спустя 2 месяца 11 дней) [-]0[+]

Топик был перенесен из форума Новинки 2014-2015 (Rips) в форум Зарубежные полнометражные мультфильмы

LyaKich
 
Показать сообщения:    
Ответить на тему

Текущее время: 09-Дек 15:45

Часовой пояс: GMT + 4



Вы не можете начинать темы
Вы не можете отвечать на сообщения
Вы не можете редактировать свои сообщения
Вы не можете удалять свои сообщения
Вы не можете голосовать в опросах
Вы не можете прикреплять файлы к сообщениям
Вы не можете скачивать файлы