Ошибка

Хранитель Луны / Mune, le gardien de la lune (Александр Эбоян, Бенуа Филиппон) [2015, мультфильм, BDRip 720p] Dub от R.G.TNClub

Ответить на тему
 
Автор Сообщение

R.G. TNClub

Стаж: 2 года 3 месяца

Сообщений: 515

Рейтинг

post 29-Окт-2015 09:39 1[+]

[Цитировать] 

Хранитель Луны / Mune, le gardien de la lune
«Он не спасет мир. Он спасет пять миров!»

Страна: Франция
Жанр: мультфильм
Год выпуска: 2015
Продолжительность: 01:21:27
Перевод:
  • Профессиональный (дублированный) [Лицензия RUS BD] - русский
Субтитры: ---
Оригинальная дорожка: ---
Главы: есть

Режиссер: Александр Эбоян, Бенуа Филиппон
В ролях: Омар Си / Omar Sy (Sohone, озвучка), Изиа Ижлен / Izïa Higelin (Glim, озвучка), Майкл Грегорио / Michael Gregorio (Mune, озвучка), Шафик Ахмад / Shafik Ahmad , Бенуа Аллемане / Benot Allemane (Yule, озвучка), Шеннон Арчи / Shannon Archie (Groupie, озвучка), Федор Аткин / Fodor Atkine (Leeyoon, озвучка), Джошуа Дж. Баллард / Joshua J. Ballard (Mune, озвучка)

Описание: На диковинной планете, где смена дня и ночи осуществляется вручную, юного фавна Мьюна неожиданно избирают хранителем Луны. Но к своему ужасу, он почти сразу теряет ее! Воспользовавшись этим, царь подземного мира Некрос крадет и гасит Солнце. Теперь, чтобы спасти планету, Мьюн вместе с отважной девочкой из воска Глим и заносчивым Сохоном, хранителем Солнца, должны отправиться в удивительное и опасное путешествие.

Качество видео: BDRip 720p
Рип от L!
Формат видео: MKV

Видео: MPEG-4 AVC Video ~3.1 mbps 1280 x 536 / 25,000 fps / 2.40:1 / High Profile 4.1
Аудио:
  • Russian: DTS Core: 5.1 / 48 kHz / 1509 kbps / 24-bit


Раздача от &
MUNE_HDCLUB

Код:



Unique ID                                : 233598044083430713728591513090359469205 (0xAFBD58C837596148B37F231544DEA495)
Complete name                            : D:\L#TNClub\Mune.Le.Gardien.De.la.Lune.2015.BluRay.DTS.x264-TNClub.mkv
Format                                   : Matroska
Format version                           : Version 4 / Version 2
File size                                : 2.67 GiB
Duration                                 : 1h 21mn
Overall bit rate                         : 4 697 Kbps
Movie name                               : Mune.Le.Gardien.De.la.Lune.2015.BluRay.DTS.x264-TNClub
Encoded date                             : UTC 2015-10-29 06:17:18
Writing application                      : mkvmerge v8.3.0 ('Over the Horizon') 32bit
Writing library                          : libebml v1.3.1 + libmatroska v1.4.2
Attachements                             : coverr.png
DURATION                                 : 01:21:26.966000000
NUMBER_OF_FRAMES                         : 458153
NUMBER_OF_BYTES                          : 922261989
_STATISTICS_WRITING_APP                  : mkvmerge v8.3.0 ('Over the Horizon') 32bit
_STATISTICS_WRITING_DATE_UTC             : 2015-10-29 06:17:18
_STATISTICS_TAGS                         : BPS DURATION NUMBER_OF_FRAMES NUMBER_OF_BYTES

Video
ID                                       : 1
Format                                   : AVC
Format/Info                              : Advanced Video Codec
Format profile                           : High@L4.1
Format settings, CABAC                   : Yes
Format settings, ReFrames                : 11 frames
Codec ID                                 : V_MPEG4/ISO/AVC
Duration                                 : 1h 21mn
Bit rate                                 : 3 093 Kbps
Width                                    : 1 280 pixels
Height                                   : 536 pixels
Display aspect ratio                     : 2.40:1
Frame rate mode                          : Constant
Frame rate                               : 25.000 fps
Color space                              : YUV
Chroma subsampling                       : 4:2:0
Bit depth                                : 8 bits
Scan type                                : Progressive
Bits/(Pixel*Frame)                       : 0.180
Stream size                              : 1.76 GiB (66%)
Title                                    : Mune.Le.Gardien.De.la.Lune.2015.BluRay.DTS.x264-TNClub
Writing library                          : x264 core 146 r2538 121396c
Encoding settings                        : cabac=1 / ref=11 / deblock=1:-3:-2 / analyse=0x3:0x133 / me=umh / subme=11 / psy=1 / psy_rd=1.05:0.10 / mixed_ref=1 / me_range=32 / chroma_me=1 / trellis=2 / 8x8dct=1 / cqm=0 / deadzone=21,11 / fast_pskip=0 / chroma_qp_offset=-4 / threads=6 / lookahead_threads=1 / sliced_threads=0 / nr=0 / decimate=1 / interlaced=0 / bluray_compat=0 / constrained_intra=0 / bframes=8 / b_pyramid=2 / b_adapt=2 / b_bias=0 / direct=1 / weightb=1 / open_gop=0 / weightp=2 / keyint=240 / keyint_min=22 / scenecut=40 / intra_refresh=0 / rc_lookahead=60 / rc=crf / mbtree=0 / crf=16.5 / qcomp=0.70 / qpmin=0 / qpmax=69 / qpstep=4 / vbv_maxrate=30000 / vbv_bufsize=40000 / crf_max=0.0 / nal_hrd=none / filler=0 / ip_ratio=1.35 / pb_ratio=1.25 / aq=2:0.90
Language                                 : English
Default                                  : Yes
Forced                                   : No
DURATION                                 : 01:21:26.920000000
NUMBER_OF_FRAMES                         : 122173
NUMBER_OF_BYTES                          : 1945017508
_STATISTICS_WRITING_APP                  : mkvmerge v8.3.0 ('Over the Horizon') 32bit
_STATISTICS_WRITING_DATE_UTC             : 2015-10-29 06:17:18
_STATISTICS_TAGS                         : BPS DURATION NUMBER_OF_FRAMES NUMBER_OF_BYTES

Audio
ID                                       : 2
Format                                   : DTS
Format/Info                              : Digital Theater Systems
Mode                                     : 16
Format settings, Endianness              : Big
Codec ID                                 : A_DTS
Duration                                 : 1h 21mn
Bit rate mode                            : Constant
Bit rate                                 : 1 510 Kbps
Channel(s)                               : 6 channels
Channel positions                        : Front: L C R, Side: L R, LFE
Sampling rate                            : 48.0 KHz
Bit depth                                : 24 bits
Compression mode                         : Lossy
Stream size                              : 880 MiB (32%)
Title                                    : DTS5.1@1510
Language                                 : Russian
Default                                  : Yes
Forced                                   : No

Menu
00:00:00.000                             : en:00:00:00.000
00:05:54.160                             : en:00:05:54.160
00:13:02.640                             : en:00:13:02.640
00:17:54.560                             : en:00:17:54.560
00:24:42.000                             : en:00:24:42.000
00:30:02.960                             : en:00:30:02.960
00:34:33.560                             : en:00:34:33.560
00:42:25.960                             : en:00:42:25.960
00:47:45.000                             : en:00:47:45.000
00:53:42.760                             : en:00:53:42.760
01:00:16.640                             : en:01:00:16.640
01:09:48.000                             : en:01:09:48.000
Пожалуйста, оставайтесь на раздаче как можно дольше!
Релиз специально для Tapochek.net
Все раздачи R.G.TNClub


info [Профиль]  [ЛС] 

post 29-Окт-2015 10:25 (спустя 45 минут) [-]0[+]

Топик был перенесен из форума Оформление раздач (R.G. TNClub) в форум Новинки 2014-2015 (Web-DL, DVD, HD DVD, Blu-ray, HD Rips)

L
 

post 29-Окт-2015 10:25 (спустя 45 минут) [-]0[+]

Топик был перенесен из форума Новинки 2014-2015 (Web-DL, DVD, HD DVD, Blu-ray, HD Rips) в форум Мультфильмы от R.G. TNСlub

L
 

PhantomX3

Стаж: 7 лет 2 месяца

Сообщений: 164

Рейтинг

post 29-Окт-2015 11:51 (спустя 2 часа 11 минут) [-]1[+]

[Цитировать] 

Аватар в космосе? Смеюсь
info [Профиль]  [ЛС] 

stiv_sigmal

Стаж: 2 года 11 месяцев

Сообщений: 110

Рейтинг

post 29-Окт-2015 12:14 (спустя 22 минуты) [-]1[+]

[Цитировать] 

PhantomX3 писал(а):

Аватар в космосе? Смеюсь
Закат солнца вручную.
info [Профиль]  [ЛС] 

T-ReX

Пол: Пол:Муж

Стаж: 7 лет 8 месяцев

Сообщений: 298

СССР
Рейтинг

post 29-Окт-2015 12:35 (спустя 21 минута) [-]-2[+]

[Цитировать] 

Что курил автор мульта?

_________________
DURA LEX - SED LEX
info [Профиль]  [ЛС] 

rambaramba

Пол: Пол:Муж

Стаж: 1 год 10 месяцев

Сообщений: 425

Предупреждений: 1

Антарктида
Рейтинг

post 29-Окт-2015 19:20 (спустя 6 часов) [-]7[+]

[Цитировать] 

T-ReX
Ничего он не курил. Это обычная хорошая сказка, которых сейчас не хватает. Губки и котопсы всякие идут лесом.

_________________
Уважаемый админ, прошу добавь мне 99 предупреждений. Хочу быть самым опасным и жить на грани банана.
info [Профиль]  [ЛС] 

Kolyabus

Пол: Пол:Муж

Стаж: 7 лет 2 месяца

Сообщений: 93

Россия
Рейтинг

post 30-Окт-2015 00:10 (спустя 4 часа) [-]3[+]

[Цитировать] 

Отличный мультфильм! С большим удовольствием посмотрел.
info [Профиль]  [ЛС] 

Oksi Klim

Пол: Пол:Жен

Стаж: 4 года 11 месяцев

Сообщений: 44

СССР
Рейтинг

post 31-Окт-2015 18:10 (спустя 1 день 17 часов) [-]5[+]

[Цитировать] 

R.G. TNClub
Спасибо! kolob_101

_________________
Have a question? Go, FAQ yourself.
info [Профиль]  [ЛС] 

L

Пол: Пол:Муж

Стаж: 6 лет 8 месяцев

Сообщений: 10838

Украина
Рейтинг

post 31-Окт-2015 18:17 (спустя 6 минут) [-]0[+]

[Цитировать] 

Oksi Klim
Пожалуйста Улыбаюсь

_________________
info [Профиль]  [ЛС] 

Конгрик

Пол: Пол:Муж

Стаж: 4 года 2 месяца

Сообщений: 228

Россия
Рейтинг

post 28-Фев-2016 19:54 (спустя 3 месяца 28 дней) [-]5[+]

[Цитировать] 

Спасибо за раздачу!

_________________
Люблю людей, люблю когда их нет. Выйду на балкон, разряжу пистолет...
info [Профиль]  [ЛС] 
Показать сообщения:    
Ответить на тему

Текущее время: 11-Дек 08:14

Часовой пояс: GMT + 4



Вы не можете начинать темы
Вы не можете отвечать на сообщения
Вы не можете редактировать свои сообщения
Вы не можете удалять свои сообщения
Вы не можете голосовать в опросах
Вы не можете прикреплять файлы к сообщениям
Вы не можете скачивать файлы