Ошибка

Хранитель луны / Mune, le gardien de la lune (Александр Эбоян, Бенуа Филиппон) [2014 г., Мультфильм, HDRip] Лицензия

Ответить на тему
 
Автор Сообщение

Prov1zoR

Пол: Пол:Муж

Стаж: 4 года 2 месяца

Сообщений: 101

Россия
Рейтинг

post 28-Окт-2015 22:25 0[+]

[Цитировать] 

Хранитель луны
Mune, le gardien de la lune
Год выпуска: 2014
Страна: Франция
Жанр: Мультфильм
Продолжительность: 01:21:26
Перевод: Профессиональный (полное дублирование) [Лицензия]
Режиссер: Александр Эбоян, Бенуа Филиппон
Роли дублировали: Александр Ревва, Наталия Медведева, Василий Буткевич, Алексей Багдасаров, Илья Барабанов, Алексей Розин, Сергей Чихачев, Александр Вартанов, Артур Бесчастный, Григорий Калинин, Александр Новиков
Описание: На диковинной планете, где смена дня и ночи осуществляется вручную, юного фавна Мьюна неожиданно избирают хранителем Луны. Но к своему ужасу, он почти сразу теряет ее! Воспользовавшись этим, царь подземного мира Некрос крадет и гасит Солнце. Теперь, чтобы спасти планету, Мьюн вместе с отважной девочкой из воска Глим и заносчивым Сохоном, хранителем Солнца, должны отправиться в удивительное и опасное путешествие.

Качество: HDRip
Формат: AVI
Видео: 720x304 (2.37:1), 25 fps, XviD build 50 ~1945 kbps avg, 0.35 bit/pixel
Аудио: 48 kHz, AC3 Dolby Digital, 3/2 (L,C,R,l,r) + LFE ch, ~448 kbps

Sample: http://sendfile.su/1168914
General
Complete name : E:\Кино\Раздача\Хранитель луны.avi
Format : AVI
Format/Info : Audio Video Interleave
File size : 1.37 GiB
Duration : 1h 21mn
Overall bit rate : 2 404 Kbps
Writing application : VirtualDubMod 1.5.10.2 (build 2540/release)
Writing library : VirtualDubMod build 2540/release

Video
ID : 0
Format : MPEG-4 Visual
Format profile : Advanced Simple@L5
Format settings, BVOP : 2
Format settings, QPel : No
Format settings, GMC : No warppoints
Format settings, Matrix : Default (MPEG)
Codec ID : XVID
Codec ID/Hint : XviD
Duration : 1h 21mn
Bit rate : 1 946 Kbps
Width : 720 pixels
Height : 304 pixels
Display aspect ratio : 2.35:1
Frame rate : 25.000 fps
Color space : YUV
Chroma subsampling : 4:2:0
Bit depth : 8 bits
Scan type : Progressive
Compression mode : Lossy
Bits/(Pixel*Frame) : 0.356
Stream size : 1.11 GiB (81%)
Writing library : XviD 1.2.1 (UTC 2008-12-04)

Audio
ID : 1
Format : AC-3
Format/Info : Audio Coding 3
Mode extension : CM (complete main)
Format settings, Endianness : Big
Codec ID : 2000
Duration : 1h 21mn
Bit rate mode : Constant
Bit rate : 448 Kbps
Channel(s) : 6 channels
Channel positions : Front: L C R, Side: L R, LFE
Sampling rate : 48.0 KHz
Bit depth : 16 bits
Compression mode : Lossy
Stream size : 261 MiB (19%)
Alignment : Split accross interleaves
Interleave, duration : 40 ms (1.00 video frame)
Interleave, preload duration : 500 ms
info [Профиль]  [ЛС] 

post 28-Окт-2015 22:58 (спустя 33 минуты) [-]0[+]

Топик был перенесен из форума Анонсы в форум Новинки 2014-2015 (Rips)

koss555
 

post 05-Фев-2016 01:19 (спустя 3 месяца 7 дней) [-]0[+]

Топик был перенесен из форума Новинки 2014-2015 (Rips) в форум Зарубежные полнометражные мультфильмы

LyaKich
 

ghoyst00

Пол: Пол:Муж

Стаж: 2 года

Сообщений: 4

Казахстан
Рейтинг

post 16-Ноя-2016 20:02 (спустя 1 год) [-]-1[+]

[Цитировать] 

Чем-то напоминает игру Ori and the blind forest kolob_111
info [Профиль]  [ЛС] 
Показать сообщения:    
Ответить на тему

Текущее время: 09-Дек 15:42

Часовой пояс: GMT + 4



Вы не можете начинать темы
Вы не можете отвечать на сообщения
Вы не можете редактировать свои сообщения
Вы не можете удалять свои сообщения
Вы не можете голосовать в опросах
Вы не можете прикреплять файлы к сообщениям
Вы не можете скачивать файлы