Ошибка

Пластиковые воспоминания / Синтетические воспоминания / Plastic Memories / Plamemo [TV] [13 из 13] [2015] [сэйнэн, приключения, фантастика, романтика, драма] [BDRip] [1080p] [Любительский(JAP+SUB)]

Ответить на тему
 
Автор Сообщение

Vladdrako

Пол: Пол:Муж

Стаж: 2 года 11 месяцев

Сообщений: 25

Япония
Рейтинг

post 26-Окт-2015 15:38 1[+]

[Цитировать] 


Год выпуска: 2015
Страна: Япония
Жанр: сэйнэн, приключения, фантастика, романтика, драма
Продолжительность: ТВ, 13 эп. по 24 мин.
Выпуск: c 05.04.2015 по 28.06.2015
Перевод:
  • русские субтитры от Zero & Jarly (полные/вспомогательные)
    переводчик Zero, редактор: Jarly
  • русские субтитры от Дмитрий Седоченко (полные/вспомогательные)

Режиссер: Фудзивара Ёсиюки
Студия: Dogakobo
Описание:
В недалеком будущем андроиды, неотличимые от людей, не только выполняют тяжелую и грязную работу – они учат, помогают по дому, воспитывают детей, к ним привязываются, в них влюбляются. Увы, срок их службы недолог – даже лучший производитель SAI Corp. дает примерно 9,3 года гарантии, потом искусственная личность разрушается, а носитель может стать агрессивен и опасен. Людям бывает тяжело расставаться фактически с членами семьи – потому существует Терминальная Служба, сотрудники которой обязаны постараться по-хорошему уговорить хозяев, а потом забрать отработанный товар и стереть ему память.
18-летнего Цукасу Мидзугаки, завалившего экзамены в университет, отец по знакомству устраивает в Первый отдел Терминальной Службы SAI Corp., считая, что работа непыльная, и год парень протянет. Но оперативники работают парами из человека и андроида, а новичку из-за технической ошибки напарника не подобрали – пришлось начальнице отдела Кадзуки Куваноми вызывать из резерва Айлу, опытного «спеца» в образе милой светловолосой девочки. Не без проблем, но напарники сработались, притерлись друг к другу, и тут Цукаса узнал, что жить как личности Айле осталось примерно 2000 часов, то есть меньше трех месяцев…
Информационные ссылки: AniDB || World Art || MAL
Качество: BDRip
Энкод: =^_^= [Beatrice-Raws]
Тип видео: без хардсаба, без линковки
Формат: MKV
Видео: x264, (10bit), 1920x1080, ~ 7983Kbps, 23,976 fps
Аудио JAP: FLAC, 16bit, 763kbps, 48000Hz, 2ch
Аудио RUS 1-4: AC3, 192kbps, 48000Hz, 2ch (внешними файлами)
  • многоголосая от Рапунцель-тян & Lucifer & Kiana & KrisLaKras (JazzWay Anime)
  • трёхголосая от Ancord & Fuurou & Shina (AniDub)
  • двухголосая (муж./жен.) от Railgun & Lamia (AniLibria)
  • двухголосая (муж./жен.) от Snowly & Hekomi (SHIZA Project)
01. The First Partner
02. Don`t Want to Cause Trouble
03. We`ve Just Started Living Together
04. I Just Don`t Know How to Smile
05. The Promise I Wanted to Keep
06. Welcome Home the Both of Us
07. How to Ask Her Out
08. The Fireworks I`ve Never Seen
09. After the Festival
10. No Longer Partners
11. Rice Omelette Day
12. Filling Up with Memories
13. I Hope One Day You`ll Be Reunited
 
Общее
Уникальный идентификатор : 223055781050579462704680272802732538839 (0xA7CEFB15AB6057C6B3F554BA4FFB7BD7)
Полное имя : K:\[Beatrice-Raws] Plastic Memories [BDRip 1920x1080 x264 FLAC]\[Beatrice-Raws] Plastic Memories 01 [BDRip 1920x1080 x264 FLAC].mkv
Формат : Matroska
Версия формата : Version 4 / Version 2
Размер файла : 1,56 Гбайт
Продолжительность : 25 м.
Режим общего битрейта : Переменный
Общий поток : 8746 Кбит/сек
Дата кодирования : UTC 2015-09-10 10:38:16
Программа кодирования : mkvmerge v8.3.0 ('Over the Horizon') 64bit
Библиотека кодирования : libebml v1.3.1 + libmatroska v1.4.2
Видео
Идентификатор : 1
Формат : AVC
Формат/Информация : Advanced Video Codec
Профиль формата : High 10@L5
Параметр CABAC формата : Да
Параметр ReFrames формата : 8 кадров
Идентификатор кодека : V_MPEG4/ISO/AVC
Продолжительность : 25 м.
Битрейт : 7980 Кбит/сек
Ширина : 1920 пикселей
Высота : 1080 пикселей
Соотношение сторон : 16:9
Режим частоты кадров : Постоянный
Частота кадров : 23,976 (23976/1000) кадра/сек
Частота кадров в оригинале : 23,976 (24000/1001) кадра/сек
Цветовое пространство : YUV
Субдискретизация насыщенности : 4:2:0
Битовая глубина : 10 бит
Тип развёртки : Прогрессивная
Бит/(Пиксели*Кадры) : 0.161
Размер потока : 1,42 Гбайт (91%)
Заголовок : Plastic Memories ep.01 «The First Partner»
Библиотека кодирования : x264 core 148 r2579 73ae2d1
Настройки программы : cabac=1 / ref=8 / deblock=1:-3:-3 / analyse=0x3:0x113 / me=umh / subme=9 / psy=1 / psy_rd=1.00:0.00 / mixed_ref=1 / me_range=32 / chroma_me=1 / trellis=2 / 8x8dct=1 / cqm=0 / deadzone=21,11 / fast_pskip=1 / chroma_qp_offset=-2 / threads=12 / lookahead_threads=3 / sliced_threads=0 / nr=0 / decimate=1 / interlaced=0 / bluray_compat=0 / constrained_intra=0 / bframes=11 / b_pyramid=2 / b_adapt=2 / b_bias=0 / direct=1 / weightb=1 / open_gop=0 / weightp=2 / keyint=240 / keyint_min=23 / scenecut=40 / intra_refresh=0 / rc=crf / mbtree=0 / crf=16.0 / qcomp=0.72 / qpmin=0 / qpmax=81 / qpstep=4 / ip_ratio=1.40 / pb_ratio=1.30 / aq=1:1.00
Default : Да
Forced : Нет
Цветовой диапазон : Limited
Основные цвета : BT.709
Характеристики трансфера : BT.709
Коэффициенты матрицы : BT.709
Аудио
Идентификатор : 2
Формат : FLAC
Формат/Информация : Free Lossless Audio Codec
Идентификатор кодека : A_FLAC
Продолжительность : 25 м.
Вид битрейта : Переменный
Битрейт : 763 Кбит/сек
Каналы : 2 канала
Расположение каналов : Front: L R
Частота : 48,0 КГц
Частота кадров : 41,667 кадра/сек (1152 spf)
Битовая глубина : 16 бит
Размер потока : 139 Мбайт (9%)
Библиотека кодирования : libFLAC 1.3.1 (UTC 2014-11-25)
Язык : Japanese
Default : Да
Forced : Нет
Меню
00:00:00.000 : :avant
00:01:08.526 : :partA
00:14:45.009 : :part B
00:24:00.021 : :ED
info [Профиль]  [ЛС] 

Vladdrako

Пол: Пол:Муж

Стаж: 2 года 11 месяцев

Сообщений: 25

Япония
Рейтинг

post 09-Апр-2016 18:42 (спустя 5 месяцев 14 дней) [-]0[+]

[Цитировать] 

Торрент обновлен! Добавлены недостающие серии. Релиз завершен
info [Профиль]  [ЛС] 
Показать сообщения:    
Ответить на тему

Текущее время: 04-Дек 14:20

Часовой пояс: GMT + 4



Вы не можете начинать темы
Вы не можете отвечать на сообщения
Вы не можете редактировать свои сообщения
Вы не можете удалять свои сообщения
Вы не можете голосовать в опросах
Вы не можете прикреплять файлы к сообщениям
Вы не можете скачивать файлы