Ошибка

Лисица / Vixen / Сезон: 1 / Серии: 1-6 (6) (Джеймс Такер) [2015, Приключения, Супергероический, Боевик, Научная фантастика, WebRip 1080P] DVO LE-Production

Ответить на тему
 
Автор Сообщение

LE_Production

Стаж: 3 года 4 месяца

Сообщений: 11

Россия
Рейтинг

post 22-Окт-2015 17:22 0[+]

[Цитировать] 

- Лисица -
Vixen

pic="http://i66.fastpic.ru/big/2015/1022/2d/623e066aa588b0683439b8fff6645d2d.png"
Год выпуска: 2015
Страна: США
Жанр: Приключения, Супергероический, Боевик, Научная фантастика
Продолжительность: 5 мин.
Перевод: Любительский (двухголосый закадровый) - LE-Production
Озвучка: Тимиркан Сиюхов и Маргарита Щелкунова
Режиссер: Джеймс Такери
В ролях: Мегалин Эхикунвоке (Мари МакКейб/Лисица), Стивен Амелл (Оливер Куин/Стрела), Грант Гастин (Барри Аллен /Флэш), Эмили Бетт Рикардс (Фелисити Смоук), Карлос Валдес (Циско Рамон), Нил Флинн (Чак).
Описание:
Уроженица одной африканской страны Мари МакКейб потеряла родителей в результате местного военного конфликта и получила в наследство необычное ожерелье под названием Тотем Танту, которое наделяет ее способностью имитировать свойства и способности любого живущего на Земле животного. Мэри решает стать мстителем в маске, известным как Виксен, чтобы не допустить повторения трагедий вроде гибели ее родителей.
Качество: WebRip (1080p)
Формат: MP4
Видео кодек: x264
Аудио кодек: AAC
Видео: x264, 1920x1080 (16:9), 23.976 fps, ~4724 Kbps
Аудио: AAC, 2 ch, 128 Кбит/с
Релиз от:
Формат : MPEG-4
Профиль формата : Base Media
Идентификатор кодека : isom
Размер файла : 151 Мбайт
Продолжительность : 4 м. 21 с.
Режим общего битрейта : Переменный
Общий поток : 4855 Кбит/сек
Дата кодирования : UTC 2015-09-04 06:05:33
Дата пометки : UTC 2015-09-04 06:05:33
Авторское право : le-production

Видео
Идентификатор : 1
Формат : AVC
Формат/Информация : Advanced Video Codec
Профиль формата : High@L4
Параметр CABAC формата : Да
Параметр ReFrames формата : 4 кадра
Идентификатор кодека : avc1
Идентификатор кодека/Информация : Advanced Video Coding
Продолжительность : 4 м. 21 с.
Битрейт : 4724 Кбит/сек
Максимальный битрейт : 13,5 Мбит/сек
Ширина : 1920 пикселей
Высота : 1080 пикселей
Соотношение сторон : 16:9
Режим частоты кадров : Постоянный
Частота кадров : 23,976 кадра/сек
Цветовое пространство : YUV
Субдискретизация насыщенности : 4:2:0
Битовая глубина : 8 бит
Тип развёртки : Прогрессивная
Бит/(Пиксели*Кадры) : 0.095
Размер потока : 147 Мбайт (97%)
Библиотека кодирования : x264 core 146 r2538 121396c
Настройки программы : cabac=1 / ref=1 / deblock=1:1:1 / analyse=0x3:0x3 / me=dia / subme=1 / psy=1 / psy_rd=0.40:0.00 / mixed_ref=0 / me_range=16 / chroma_me=1 / trellis=0 / 8x8dct=1 / cqm=0 / deadzone=21,11 / fast_pskip=1 / chroma_qp_offset=0 / threads=12 / lookahead_threads=2 / sliced_threads=0 / nr=0 / decimate=1 / interlaced=0 / bluray_compat=0 / constrained_intra=0 / bframes=5 / b_pyramid=2 / b_adapt=1 / b_bias=0 / direct=1 / weightb=1 / open_gop=0 / weightp=1 / keyint=250 / keyint_min=23 / scenecut=40 / intra_refresh=0 / rc=crf / mbtree=0 / crf=20.0 / qcomp=0.60 / qpmin=0 / qpmax=69 / qpstep=4 / ip_ratio=1.40 / pb_ratio=1.30 / aq=1:0.60
Язык : Russian
Дата кодирования : UTC 2015-09-04 05:58:50
Дата пометки : UTC 2015-09-04 06:05:34

Аудио
Идентификатор : 2
Формат : AAC
Формат/Информация : Advanced Audio Codec
Профиль формата : LC
Идентификатор кодека : 40
Продолжительность : 4 м. 21 с.
Вид битрейта : Переменный
Битрейт : 128 Кбит/сек
Максимальный битрейт : 131 Кбит/сек
Каналы : 2 канала
Расположение каналов : Front: L R
Частота : 48,0 КГц
Метод сжатия : С потерями
Размер потока : 3,99 Мбайт (3%)
Язык : Russian
Дата кодирования : UTC 2015-09-04 06:05:34
Дата пометки : UTC 2015-09-04 06:05:34
info [Профиль]  [ЛС] 

post 22-Окт-2015 18:18 (спустя 56 минут) [-]-1[+]

Топик был перенесен из форума Мультсериалы в форум Оформление раздач (Кинематограф)

BZzz
 

BZzz

Пол: Пол:Муж

Стаж: 5 лет 1 месяц

Сообщений: 3647

Россия
Рейтинг

post 22-Окт-2015 18:20 (спустя 58 минут) [-]0[+]

[Цитировать] 

LE_Production
 !  BZzz:
http://tapochek.net/viewtopic.php?t=28799

_________________
info [Профиль]  [ЛС] 

post 22-Окт-2015 20:37 (спустя 2 часа 16 минут) [-]0[+]

Топик был перенесен из форума Оформление раздач (Кинематограф) в форум Мультсериалы

BZzz
 

Dr4g0n1k

Пол: Пол:Муж

Стаж: 3 года 3 месяца

Сообщений: 67

Россия
Рейтинг

post 23-Окт-2015 18:03 (спустя 23 часа) [-]0[+]

[Цитировать] 

Продолжительность: 5 мин.
как реклама и 700мб Улыбаюсь

_________________
Intel Core i5 2500K 3.3Mhz (4.0Mhz), ASRock LGA1155 Z68 Pro3 Gen3, DIMM DDR3 8182MB PC10666 1333Mhz Hynix orig, AMD Radeon HD 6930 DDR5 2048MB 256bit, Chieftec 550W
info [Профиль]  [ЛС] 

LE_Production

Стаж: 3 года 4 месяца

Сообщений: 11

Россия
Рейтинг

post 23-Окт-2015 18:50 (спустя 47 минут) [-]0[+]

[Цитировать] 

Dr4g0n1k
ну это же не все 6 серий суммарно 5 минут идут))) плюс 1080р таки))
info [Профиль]  [ЛС] 
Показать сообщения:    
Ответить на тему

Текущее время: 07-Дек 22:27

Часовой пояс: GMT + 4



Вы не можете начинать темы
Вы не можете отвечать на сообщения
Вы не можете редактировать свои сообщения
Вы не можете удалять свои сообщения
Вы не можете голосовать в опросах
Вы не можете прикреплять файлы к сообщениям
Вы не можете скачивать файлы