Ошибка

Головоломка / Inside Out (Пит Доктер, Роналдо Дель Кармен) [2015, мультфильм, семейный, комедия, BDRip 1080p] Dub + Ukr + Eng + Sub от R.G. TNClub

Ответить на тему
 
Автор Сообщение

R.G. TNClub

Стаж: 2 года 3 месяца

Сообщений: 515

Рейтинг

post 20-Окт-2015 21:59 1[+]

[Цитировать] 

Головоломка / Inside Out
«Нет слов, одни эмоции»

Страна: США
Жанр: мультфильм, семейный, комедия
Год выпуска: 2015
Продолжительность: 01:34:45
Перевод:
  • Профессиональный (дублированный) [Лицензия iTunes] - русский
  • Профессиональный (дублированный) - украинский
Субтитры: русские, английские
Оригинальная дорожка: английский
Главы: есть

Режиссер: Пит Доктер, Роналдо Дель Кармен
В ролях: Эми Полер / Amy Poehler (Joy, озвучка), Ричард Кайнд / Richard Kind (Bing Bong, озвучка), Билл Хейдер / Bill Hader (Fear, озвучка), Льюис Блэк / Lewis Black (Anger, озвучка), Минди Кейлинг / Mindy Kaling (Disgust, озвучка), Кейтлин Диас / Kaitlyn Dias (Riley, озвучка), Дайан Лэйн / Diane Lane (Mom, озвучка)


Описание: Райли — обычная 11-летняя школьница, и, как у каждого из нас, ее поведение определяют пять базовых эмоций: Радость, Печаль, Страх, Гнев и Брезгливость. Эмоции живут в сознании девочки и каждый день помогают ей справляться с проблемами, руководя всеми ее поступками. До поры до времени эмоции живут дружно, но вдруг оказывается, что Райли и ее родителям предстоит переезд из небольшого уютного городка в шумный и людный мегаполис. Каждая из эмоций считает, что именно она лучше прочих знает, что нужно делать в этой непростой ситуации, и в голове у девочки наступает полная неразбериха. Чтобы наладить жизнь в большом городе, освоиться в новой школе и подружиться с одноклассниками, эмоциям Райли предстоит снова научиться работать сообща.

Качество видео: BDRip 1080p
Рип от BLUEBIRD!
Формат видео: MKV
Видео: MPEG-4 AVC Video ~ 9.9 Mbps 1920 x 1080 / 23,976 fps / 16:9 / High Profile 4.1
Аудио: 4
  • Russian: 48 kHz, AC3 Dolby Digital, 3/2 (L,C,R,l,r) + LFE ch, 384 kbps
  • Ukrainian: 48 kHz, AC3 Dolby Digital, 3/2 (L,C,R,l,r) + LFE ch, ~448 kbps
  • English: 48 kHz, AC3 Dolby Digital, 3/2 (L,C,R,l,r) + LFE ch, ~640 kbps
Формат субтитров: softsub (SRT)

Раздача от &
Inside.Out.2015.BDRip.1080p.BLUEBIRD
Unique ID : 253155896116458327931577785251777389449 (0xBE740D55F59EA3BB875DDE3259B2A389)
Complete name : D:\L#TNClub\Inside.Out.2015.Bluray.1080p.DD5.1.x264.-TNClub.mkv
Format : Matroska
Format version : Version 4 / Version 2
File size : 7.49 GiB
Duration : 1h 34mn
Overall bit rate : 11.3 Mbps
Movie name : L@TNClub: Головоломка / Inside Out (2015)
Encoded date : UTC 2015-10-20 18:38:17
Writing application : mkvmerge v8.3.0 ('Over the Horizon') 32bit
Writing library : libebml v1.3.1 + libmatroska v1.4.2
Attachements : coverr.png
DURATION : 01:26:59.093000000
NUMBER_OF_FRAMES : 1378
NUMBER_OF_BYTES : 48836
_STATISTICS_WRITING_APP : mkvmerge v8.3.0 ('Over the Horizon') 32bit
_STATISTICS_WRITING_DATE_UTC : 2015-10-20 18:38:17
_STATISTICS_TAGS : BPS DURATION NUMBER_OF_FRAMES NUMBER_OF_BYTES

Video
ID : 1
Format : AVC
Format/Info : Advanced Video Codec
Format profile : High@L4.1
Format settings, CABAC : Yes
Format settings, ReFrames : 4 frames
Codec ID : V_MPEG4/ISO/AVC
Duration : 1h 34mn
Bit rate : 9 855 Kbps
Width : 1 920 pixels
Height : 1 080 pixels
Display aspect ratio : 16:9
Frame rate mode : Constant
Frame rate : 23.976 fps
Color space : YUV
Chroma subsampling : 4:2:0
Bit depth : 8 bits
Scan type : Progressive
Bits/(Pixel*Frame) : 0.198
Stream size : 6.37 GiB (85%)
Title : Inside.Out.2015.Bluray.DD5.1.x264.-TNClub
Writing library : x264 core 148 r2597 e86f3a1
Encoding settings : cabac=1 / ref=4 / deblock=1:-3:-3 / analyse=0x3:0x113 / me=umh / subme=10 / psy=1 / psy_rd=1.00:0.00 / mixed_ref=1 / me_range=32 / chroma_me=1 / trellis=2 / 8x8dct=1 / cqm=0 / deadzone=21,11 / fast_pskip=0 / chroma_qp_offset=-2 / threads=12 / lookahead_threads=1 / sliced_threads=0 / nr=0 / decimate=0 / interlaced=0 / bluray_compat=0 / constrained_intra=0 / bframes=9 / b_pyramid=2 / b_adapt=1 / b_bias=0 / direct=3 / weightb=1 / open_gop=1 / weightp=2 / keyint=240 / keyint_min=23 / scenecut=40 / intra_refresh=0 / rc_lookahead=40 / rc=2pass / mbtree=0 / bitrate=9855 / ratetol=1.0 / qcomp=0.60 / qpmin=0 / qpmax=69 / qpstep=4 / cplxblur=20.0 / qblur=0.5 / vbv_maxrate=50000 / vbv_bufsize=62500 / nal_hrd=none / filler=0 / ip_ratio=1.40 / pb_ratio=1.30 / aq=3:0.80
Language : English
Default : Yes
Forced : No
DURATION : 01:34:37.845000000
NUMBER_OF_FRAMES : 136132
NUMBER_OF_BYTES : 6994695745
_STATISTICS_WRITING_APP : mkvmerge v8.3.0 ('Over the Horizon') 32bit
_STATISTICS_WRITING_DATE_UTC : 2015-10-20 18:38:17
_STATISTICS_TAGS : BPS DURATION NUMBER_OF_FRAMES NUMBER_OF_BYTES

Audio #1
ID : 2
Format : AC-3
Format/Info : Audio Coding 3
Mode extension : CM (complete main)
Format settings, Endianness : Big
Codec ID : A_AC3
Duration : 1h 34mn
Bit rate mode : Constant
Bit rate : 384 Kbps
Channel(s) : 6 channels
Channel positions : Front: L C R, Side: L R, LFE
Sampling rate : 48.0 KHz
Compression mode : Lossy
Stream size : 261 MiB (3%)
Title : iTunes, DD5.1@384
Language : Russian
Default : Yes
Forced : No

Audio #2
ID : 3
Format : AC-3
Format/Info : Audio Coding 3
Mode extension : CM (complete main)
Format settings, Endianness : Big
Codec ID : A_AC3
Duration : 1h 34mn
Bit rate mode : Constant
Bit rate : 448 Kbps
Channel(s) : 6 channels
Channel positions : Front: L C R, Side: L R, LFE
Sampling rate : 48.0 KHz
Compression mode : Lossy
Stream size : 304 MiB (4%)
Title : DD5.1@448
Language : Ukrainian
Default : No
Forced : No

Audio #3
ID : 4
Format : AC-3
Format/Info : Audio Coding 3
Mode extension : CM (complete main)
Format settings, Endianness : Big
Codec ID : A_AC3
Duration : 1h 34mn
Bit rate mode : Constant
Bit rate : 640 Kbps
Channel(s) : 6 channels
Channel positions : Front: L C R, Side: L R, LFE
Sampling rate : 48.0 KHz
Compression mode : Lossy
Stream size : 434 MiB (6%)
Title : DD5.1@640
Language : English
Default : No
Forced : No

Text #1
ID : 5
Format : UTF-8
Codec ID : S_TEXT/UTF8
Codec ID/Info : UTF-8 Plain Text
Language : Russian
Default : Yes
Forced : No

Text #2
ID : 6
Format : UTF-8
Codec ID : S_TEXT/UTF8
Codec ID/Info : UTF-8 Plain Text
Language : English
Default : No
Forced : No

Menu
00:00:00.000 : en:00:00:00.000
00:07:22.692 : en:00:07:22.692
00:11:36.779 : en:00:11:36.779
00:15:46.404 : en:00:15:46.404
00:20:02.243 : en:00:20:02.243
00:25:21.437 : en:00:25:21.437
00:26:47.064 : en:00:26:47.064
00:30:10.183 : en:00:30:10.183
00:34:45.792 : en:00:34:45.792
00:36:02.285 : en:00:36:02.285
00:37:45.305 : en:00:37:45.305
00:41:27.360 : en:00:41:27.360
00:43:35.613 : en:00:43:35.613
00:45:19.508 : en:00:45:19.508
00:46:51.851 : en:00:46:51.851
00:50:02.458 : en:00:50:02.458
00:51:34.341 : en:00:51:34.341
00:56:12.160 : en:00:56:12.160
01:00:03.683 : en:01:00:03.683
01:01:17.841 : en:01:01:17.841
01:03:50.368 : en:01:03:50.368
01:06:27.192 : en:01:06:27.192
01:11:15.771 : en:01:11:15.771
01:13:40.541 : en:01:13:40.541
01:15:38.659 : en:01:15:38.659
01:20:00.337 : en:01:20:00.337
01:23:57.199 : en:01:23:57.199
01:26:18.340 : en:01:26:18.340
Пожалуйста, оставайтесь на раздаче как можно дольше!
Релиз специально для Tapochek.net
Все раздачи R.G.TNClub


info [Профиль]  [ЛС] 

post 20-Окт-2015 23:08 (спустя 1 час 8 минут) [-]0[+]

Топик был перенесен из форума Новинки 2014-2015 (Web-DL, DVD, HD DVD, Blu-ray, HD Rips) в форум Зарубежное кино от R.G. TNСlub

L
 

tayanov

Стаж: 3 года 6 месяцев

Сообщений: 29

Россия
Рейтинг

post 21-Окт-2015 17:03 (спустя 19 часов) [-]0[+]

[Цитировать] 

Самый лучший из друзей ... Бинго Бонго
info [Профиль]  [ЛС] 

post 29-Окт-2015 10:55 (спустя 7 дней) [-]0[+]

Топик был перенесен из форума Зарубежное кино от R.G. TNСlub в форум Мультфильмы от R.G. TNСlub

L
 

kuegmi

Стаж: 2 года 4 месяца

Сообщений: 7

Американские Виргинские острова
Рейтинг

post 03-Дек-2015 15:53 (спустя 1 месяц 12 дней) [-]0[+]

[Цитировать] 

tayanov
Что, Бинго-Бонго помер? Ура! – говорит Радость, – давайте веселиться!!!
info [Профиль]  [ЛС] 
Показать сообщения:    
Ответить на тему

Текущее время: 03-Дек 21:47

Часовой пояс: GMT + 4



Вы не можете начинать темы
Вы не можете отвечать на сообщения
Вы не можете редактировать свои сообщения
Вы не можете удалять свои сообщения
Вы не можете голосовать в опросах
Вы не можете прикреплять файлы к сообщениям
Вы не можете скачивать файлы