Ошибка

Звездные войны: Повстанцы / Star Wars Rebels / Сезон: 2 / Серии: 1-21 (21) (Стюарт Ли, Дэйв Филони, Стивен Дж. Ли) [2015, фантастика, боевик, приключения, WEB-DLRip 720P] DVO LE-Production

Ответить на тему
 
Автор Сообщение

LE_Production

Стаж: 3 года 4 месяца

Сообщений: 11

Россия
Рейтинг

post 20-Окт-2015 00:47 5[+]

[Цитировать] 

- Звёздные войны: Повстанцы -
Star Wars Rebels

pic="http://i57.fastpic.ru/big/2015/1020/f4/83fa1647b4695a4557f7f94130633cf4.png"
Год выпуска: 2015
Страна: США
Жанр: фантастика, фэнтези, боевик, приключения
Продолжительность: ~00:22:00 (1 серия - ~00:43:00)
Перевод: Любительский (двухголосый закадровый) - LE-Production
Озвучка: Тимиркан Сиюхов и Маргарита Щелкунова
Режиссер: Стюарт Ли, Дэйв Филони, Стивен Дж. Ли
В ролях: Ванесса Маршалл, Фредди Принц мл., Стивен Блум, Тия Сиркар, Тейлор Грэй, Дэвид Ойелоуо, Кит Шарабайка, Лайам О’Брайэн, Грег Уайзман, Грег Эллис
Описание:
Анимационный телесериал, действие которого разворачивается в период между фильмами «Звёздные войны. Эпизод III: Месть ситхов» и «Звёздные войны. Эпизод IV: Новая надежда». Сериал будет рассказывать о разномастной группе повстанцев, экипаже космического корабля «Призрак», и их борьбе против Галактической Империи.
Качество: WEB-DLRip (720p)
Формат: MKV
Видео кодек: x264
Аудио кодек: AC3
Видео: x264, 1280x720 (16:9), 23.976 fps, 4700 Kbps
Аудио: Русский (AC3, 6 ch, 384 Кбит/с), Английский (AC3, 6 ch, 384 Кбит/с)
Сэмпл: здесь
Релиз от:
01. Осада Лотала / The Siege of Lothal
02. Пропавшие военачальники / The Lost Commanders
03. Пережитки Старой Республики / Relics of the Old Republic
04. Всегда Двое Их / Always Two There Are
05. Братья "Сломанного Рога" / Brothers of the Broken Horn
06. Крылья аса / Wings of the Master
07. Сёстры / Blood Sisters
08. Под прикрытием / Stealth Strike
09. Будущее силы / The Future of the Force
10. Наследие / Legacy
11. Принцесса на Лотале / A Princess on Lothal
12. Страж Конкорд Дана / The Protector of Concord Dawn
13. Легенды Ласата / Legends of the Lasat
14. Вызов / The Call
15. Возвращение на Родину / Homecoming
16. Благородных кровей / The Honorable Ones
17. Пелена тьмы / Shroud of Darkness
18. Потерявшийся дроид / The Forgotten Droid
19. Тайна базы Чоппера / The Mystery of Chopper Base
20. Закат Ученичества: Часть I / Twilight of the Apprentice: Part I
21. Закат Ученичества: Часть II / Twilight of the Apprentice: Part 2
Формат : Matroska
Версия формата : Version 4 / Version 2
Размер файла : 1,46 Гбайт
Продолжительность : 43 м.
Общий поток : 4799 Кбит/сек
Название фильма : LE-Production
Дата кодирования : UTC 2015-06-28 09:29:13
Программа кодирования : mkvmerge v7.9.0 ('Birds') 64bit
Библиотека кодирования : libebml v1.3.1 + libmatroska v1.4.2
DURATION : 00:43:30.112000000
NUMBER_OF_FRAMES : 81566
NUMBER_OF_BYTES : 125285376
_STATISTICS_WRITING_APP : mkvmerge v7.9.0 ('Birds') 64bit
_STATISTICS_WRITING_DATE_UTC : 2015-06-28 09:29:13
_STATISTICS_TAGS : BPS DURATION NUMBER_OF_FRAMES NUMBER_OF_BYTES

Видео
Идентификатор : 1
Формат : AVC
Формат/Информация : Advanced Video Codec
Профиль формата : High@L3.1
Параметр CABAC формата : Да
Параметр ReFrames формата : 4 кадра
Идентификатор кодека : V_MPEG4/ISO/AVC
Продолжительность : 43 м.
Битрейт : 4030 Кбит/сек
Ширина : 1280 пикселей
Высота : 720 пикселей
Соотношение сторон : 16:9
Режим частоты кадров : Постоянный
Частота кадров : 23,976 кадра/сек
Цветовое пространство : YUV
Субдискретизация насыщенности : 4:2:0
Битовая глубина : 8 бит
Тип развёртки : Прогрессивная
Бит/(Пиксели*Кадры) : 0.182
Размер потока : 1,20 Гбайт (82%)
Заголовок : LE-Production
Библиотека кодирования : x264 core 146 r2538 121396c
Настройки программы : cabac=1 / ref=1 / deblock=1:1:1 / analyse=0x3:0x113 / me=hex / subme=2 / psy=1 / psy_rd=0.40:0.00 / mixed_ref=0 / me_range=16 / chroma_me=1 / trellis=0 / 8x8dct=1 / cqm=0 / deadzone=21,11 / fast_pskip=1 / chroma_qp_offset=0 / threads=12 / lookahead_threads=4 / sliced_threads=0 / nr=0 / decimate=1 / interlaced=0 / bluray_compat=0 / constrained_intra=0 / bframes=5 / b_pyramid=2 / b_adapt=1 / b_bias=0 / direct=1 / weightb=1 / open_gop=0 / weightp=1 / keyint=250 / keyint_min=23 / scenecut=40 / intra_refresh=0 / rc_lookahead=10 / rc=2pass / mbtree=1 / bitrate=4030 / ratetol=1.0 / qcomp=0.60 / qpmin=0 / qpmax=69 / qpstep=4 / cplxblur=20.0 / qblur=0.5 / vbv_maxrate=14000 / vbv_bufsize=14000 / nal_hrd=none / filler=0 / ip_ratio=1.40 / aq=1:0.60
Язык : Russian
Default : Да
Forced : Нет

Аудио #1
Идентификатор : 2
Формат : AC-3
Формат/Информация : Audio Coding 3
Расширение режима : CM (complete main)
Параметр Endianness формата : Big
Идентификатор кодека : A_AC3
Продолжительность : 43 м.
Вид битрейта : Постоянный
Битрейт : 384 Кбит/сек
Каналы : 6 каналов
Расположение каналов : Front: L C R, Side: L R, LFE
Частота : 48,0 КГц
Битовая глубина : 16 бит
Метод сжатия : С потерями
Размер потока : 119 Мбайт (8%)
Заголовок : LE-Production (Тимиркан Сиюхов и Маргарита Щелкунова)
Язык : Russian
Default : Да
Forced : Нет

Аудио #2
Идентификатор : 3
Формат : AC-3
Формат/Информация : Audio Coding 3
Расширение режима : CM (complete main)
Параметр Endianness формата : Big
Идентификатор кодека : A_AC3
Продолжительность : 43 м.
Вид битрейта : Постоянный
Битрейт : 384 Кбит/сек
Каналы : 6 каналов
Расположение каналов : Front: L C R, Side: L R, LFE
Частота : 48,0 КГц
Битовая глубина : 16 бит
Метод сжатия : С потерями
Размер потока : 119 Мбайт (8%)
Язык : English
Default : Нет
Forced : Нет
info [Профиль]  [ЛС] 

L

Пол: Пол:Муж

Стаж: 6 лет 7 месяцев

Сообщений: 10781

Украина
Рейтинг

post 20-Окт-2015 09:56 (спустя 9 часов) [-]0[+]

[Цитировать] 

 !  L:
Вам необходимо получить статус Аплоадера, чтобы иметь права для замены торрента в разделе. Каждый раз при обновлении переносить в раздел анонсов не будем.
Станете аплоадером - начнем проверку.

_________________
info [Профиль]  [ЛС] 

post 20-Окт-2015 19:47 (спустя 9 часов) [-]0[+]

Топик был перенесен из форума Анонсы в форум Мультсериалы

L
 

L

Пол: Пол:Муж

Стаж: 6 лет 7 месяцев

Сообщений: 10781

Украина
Рейтинг

post 20-Окт-2015 19:47 (спустя 9 часов) [-]0[+]

[Цитировать] 

Скриншоты должны быть в пнг

_________________
info [Профиль]  [ЛС] 

LE_Production

Стаж: 3 года 4 месяца

Сообщений: 11

Россия
Рейтинг

post 21-Окт-2015 00:03 (спустя 4 часа) [-]0[+]

[Цитировать] 

L писал(а):

Скриншоты должны быть в пнг
Исправил
info [Профиль]  [ЛС] 

LE_Production

Стаж: 3 года 4 месяца

Сообщений: 11

Россия
Рейтинг

post 24-Окт-2015 18:29 (спустя 3 дня) [-]3[+]

[Цитировать] 

Добавлена 3-я серия. Приятного просмотра!

Добавлена 4-я серия. Приятного просмотра!

Добавлена 5-я серия. Приятного просмотра!
info [Профиль]  [ЛС] 

__IGORVAX__

Пол: Пол:Муж

Стаж: 3 года 9 месяцев

Сообщений: 7

Рейтинг

post 08-Ноя-2015 21:32 (спустя 15 дней) [-]0[+]

[Цитировать] 

Я Ньюфаг, подскажите как в уже имеющийся скачанный торрент с 4-мя сериями добавить пятую.
Я просто скачал отдельным торрентом в ту же папку только пятую серию, торрент проверил файлы и обнаружил предыдущие 4 серии.
В итоге у меня 2 закачки, отличающиеся одной серией.
Можно ли удалить первую закачку (без удаления файлов)?
Дорогу ньюфагам!1!
LE продакшн - красавцы.
info [Профиль]  [ЛС] 

L

Пол: Пол:Муж

Стаж: 6 лет 7 месяцев

Сообщений: 10781

Украина
Рейтинг

post 09-Ноя-2015 11:25 (спустя 13 часов) [-]1[+]

[Цитировать] 

__IGORVAX__ писал(а):

Я Ньюфаг, подскажите как в уже имеющийся скачанный торрент с 4-мя сериями добавить пятую.
Я просто скачал отдельным торрентом в ту же папку только пятую серию, торрент проверил файлы и обнаружил предыдущие 4 серии.
В итоге у меня 2 закачки, отличающиеся одной серией.
Можно ли удалить первую закачку (без удаления файлов)?
Дорогу ньюфагам!1!
LE продакшн - красавцы.
UPD
Хотя, папку можете и не выбирать, если ее удалили или не то название, просто выберите нужные файлы.

_________________
info [Профиль]  [ЛС] 

LE_Production

Стаж: 3 года 4 месяца

Сообщений: 11

Россия
Рейтинг

post 13-Ноя-2015 21:53 (спустя 4 дня) [-]0[+]

[Цитировать] 

Добавлена 6-я серия. Приятного просмотра!

Добавлена 7-я серия. Приятного просмотра!

Добавлена 8-9-я серии. Приятного просмотра!

info [Профиль]  [ЛС] 

HighMaster

Стаж: 6 лет 9 месяцев

Сообщений: 7

Рейтинг

post 11-Дек-2015 04:09 (спустя 27 дней) [-]0[+]

[Цитировать] 

1й сезон и иные ваши релизы представите?
info [Профиль]  [ЛС] 

LE_Production

Стаж: 3 года 4 месяца

Сообщений: 11

Россия
Рейтинг

post 12-Дек-2015 16:35 (спустя 1 день 12 часов) [-]0[+]

[Цитировать] 

Добавлена 10-я серия. Приятного просмотра!

HighMaster писал(а):

1й сезон и иные ваши релизы представите?
Первый сезон в нашей озвучке не весь. Из других работ на этом сайте есть Лисица.
info [Профиль]  [ЛС] 

LE_Production

Стаж: 3 года 4 месяца

Сообщений: 11

Россия
Рейтинг

post 25-Янв-2016 01:23 (спустя 1 месяц 12 дней) [-]0[+]

[Цитировать] 

Добавлена 11-я серия. Приятного просмотра!

Добавлена 12-я серия. Приятного просмотра!

Добавлена 13-я серия. Приятного просмотра!

Добавлены все серии. Сезон окончен! Приятного просмотра!
info [Профиль]  [ЛС] 

metallicaz

Пол: Пол:Муж

Стаж: 7 лет 3 месяца

Сообщений: 12

Рейтинг

post 01-Апр-2016 11:40 (спустя 2 месяца 7 дней) [-]0[+]

[Цитировать] 

Раздайте ребятки,почему то скорости нету вообще.Огромное спасибо за работу!!!!
info [Профиль]  [ЛС] 

usovroma

Пол: Пол:Муж

Стаж: 5 лет 5 месяцев

Сообщений: 28

Казахстан
Рейтинг

post 05-Апр-2016 21:32 (спустя 4 дня) [-]0[+]

[Цитировать] 

вроде в сериале 22 серии???
info [Профиль]  [ЛС] 

wraanger

Пол: Пол:Муж

Стаж: 4 года 7 месяцев

Сообщений: 11

Рейтинг

post 11-Ноя-2016 23:12 (спустя 7 месяцев 6 дней) [-]0[+]

[Цитировать] 

Что-то печально всё с раздачей. Последние несколько серий скачал, и всё, больше нет уже с неделю. Нужен источник (
info [Профиль]  [ЛС] 
Показать сообщения:    
Ответить на тему

Текущее время: 05-Дек 00:32

Часовой пояс: GMT + 4



Вы не можете начинать темы
Вы не можете отвечать на сообщения
Вы не можете редактировать свои сообщения
Вы не можете удалять свои сообщения
Вы не можете голосовать в опросах
Вы не можете прикреплять файлы к сообщениям
Вы не можете скачивать файлы