Ошибка

Хранитель Луны / Mune, le gardien de la lune (Александр Эбоян, Бенуа Филиппон) [2014, мультфильм, WEB-DL 1080p]

Ответить на тему
 
Автор Сообщение

BZzz

Пол: Пол:Муж

Стаж: 5 лет 1 месяц

Сообщений: 3647

Россия
Рейтинг

post 16-Окт-2015 01:01 1[+]

[Цитировать] 

Хранитель Луны / Mune, le gardien de la lune
«Он не спасет мир. Он спасет пять миров!»




Год выпуска: 2014
Страна: Франция
Жанр: мультфильм
Продолжительность: 01:21:26
Перевод: Профессиональный (дублированный)[цифровая лицензия iTunes]

Режиссер: Александр Эбоян, Бенуа Филиппон

В ролях: Омар Си☆Omar Sy (Sohone, озвучка), Изиа Ижлен☆Izïa Higelin (Glim, озвучка), Майкл Грегорио☆Michael Gregorio (Mune, озвучка), Шафик Ахмад☆Shafik Ahmad , Бенуа Аллемане☆Benoît Allemane (Yule, озвучка), Шеннон Арчи☆Shannon Archie (Groupie, озвучка), Федор Аткин☆Féodor Atkine (Leeyoon, озвучка), Джошуа Дж. Баллард☆Joshua J. Ballard (Mune, озвучка)


Описание: На диковинной планете, где смена дня и ночи осуществляется вручную, юного фавна Мьюна неожиданно избирают хранителем Луны. Но к своему ужасу, он почти сразу теряет ее! Воспользовавшись этим, царь подземного мира Некрос крадет и гасит Солнце. Теперь, чтобы спасти планету, Мьюн вместе с отважной девочкой из воска Глим и заносчивым Сохоном, хранителем Солнца, должны отправиться в удивительное и опасное путешествие.

Сборы в России: $3 170 995



Качество: WEB-DL 1080p
Формат: MKV
Видео кодек: AVC
Аудио кодек: AC3
Видео: 1920x798 (2.40:1), 25.000 fps, High@L4.0, 4 414 Kbps
Аудио #1: AC3, 384 Kbps, 48.0 KHz, 6 ch
General
Unique ID : 227808170617593876129212251740791553081 (0xAB6241FB0ACDF17E8ED5E8FE2ABABC39)
Complete name : Hranitel.luny.2014.D.WEB-DL.1080p.mkv
Format : Matroska
Format version : Version 4 / Version 2
File size : 2.78 GiB
Duration : 1h 21mn
Overall bit rate : 4 896 Kbps
Encoded date : UTC 2010-02-22 21:41:31
Writing application : mkvmerge v5.8.0 ('No Sleep / Pillow') built on Nov 13 2012 19:43:22
Writing library : libebml v1.3.0 + libmatroska v1.4.0

Video
ID : 1
Format : AVC
Format/Info : Advanced Video Codec
Format profile : High@L4.0
Format settings, CABAC : Yes
Format settings, ReFrames : 5 frames
Codec ID : V_MPEG4/ISO/AVC
Duration : 1h 21mn
Bit rate : 4 414 Kbps
Width : 1 920 pixels
Height : 798 pixels
Display aspect ratio : 2.40:1
Frame rate mode : Constant
Frame rate : 25.000 fps
Color space : YUV
Chroma subsampling : 4:2:0
Bit depth : 8 bits
Scan type : Progressive
Bits/(Pixel*Frame) : 0.115
Stream size : 2.51 GiB (90%)
Language : English
Default : Yes
Forced : No
Color primaries : BT.709
Transfer characteristics : BT.709
Matrix coefficients : BT.709

Audio
ID : 2
Format : AC-3
Format/Info : Audio Coding 3
Mode extension : CM (complete main)
Format settings, Endianness : Big
Codec ID : A_AC3
Duration : 1h 21mn
Bit rate mode : Constant
Bit rate : 384 Kbps
Channel(s) : 6 channels
Channel positions : Front: L C R, Side: L R, LFE
Sampling rate : 48.0 KHz
Bit depth : 16 bits
Compression mode : Lossy
Stream size : 224 MiB (8%)
Language : Russian
Default : Yes
Forced : No

Menu
00:00:00.000 : en:Глава 1
00:05:54.000 : en:Глава 2
00:13:02.000 : en:Глава 3
00:17:54.000 : en:Глава 4
00:24:42.000 : en:Глава 5
00:30:52.000 : en:Глава 6
00:34:17.000 : en:Глава 7
00:38:27.000 : en:Глава 8
00:42:24.000 : en:Глава 9
00:47:44.000 : en:Глава 10
00:51:26.000 : en:Глава 11
00:57:42.000 : en:Глава 12
01:01:29.000 : en:Глава 13
01:06:18.000 : en:Глава 14
01:10:08.000 : en:Глава 15
info [Профиль]  [ЛС] 

Javed

Стаж: 4 года

Сообщений: 24

Рейтинг

post 16-Окт-2015 11:02 (спустя 10 часов) [-]4[+]

[Цитировать] 

Крокодил солнце в небе проглотил? Улыбаюсь
info [Профиль]  [ЛС] 

vanoc

Пол: Пол:Муж

Стаж: 6 лет 9 месяцев

Сообщений: 15

Россия
Рейтинг

post 18-Окт-2015 13:10 (спустя 2 дня 2 часа) [-]0[+]

[Цитировать] 

Отличный мульт. Спасибо.
info [Профиль]  [ЛС] 

waterbingw

Пол: Пол:Муж

Стаж: 7 лет 2 месяца

Сообщений: 12

Рейтинг

post 19-Окт-2015 19:28 (спустя 1 день 6 часов) [-]0[+]

[Цитировать] 

спасибо большое =))) давно его ждал УРА kolob_137
 !  BZzz:
info [Профиль]  [ЛС] 

SirEltonJohn

Пол: Пол:Муж

Стаж: 6 лет 7 месяцев

Сообщений: 50

Великобритания
Рейтинг

post 05-Ноя-2015 21:20 (спустя 17 дней) [-]0[+]

[Цитировать] 

Очень понравился мультик. Спасибо большое!
В каком то моменте в мультике маленький демон говорит что то типа: "Я вот не чувствую себя плохим, но зато всегда чувствую себя плохо" - очень улыбнул момент
kolob_111
info [Профиль]  [ЛС] 

trif54

Пол: Пол:Муж

Стаж: 6 лет 11 месяцев

Сообщений: 54

Россия
Рейтинг

post 20-Ноя-2015 23:29 (спустя 15 дней) [-]0[+]

[Цитировать] 

Чудесный мультфильм и , что немаловажно, отличный дубляж!
info [Профиль]  [ЛС] 

Detech

Стаж: 5 лет 2 месяца

Сообщений: 68

Россия
Рейтинг

post 21-Ноя-2015 14:32 (спустя 15 часов) [-]0[+]

[Цитировать] 

Красивый, очень оригинальный мир, харизматичные персонажи, и, к сожалению, средненькая история.
info [Профиль]  [ЛС] 

post 06-Фев-2016 12:09 (спустя 2 месяца 14 дней) [-]0[+]

Топик был перенесен из форума Новинки 2014-2015 (Web-DL, DVD, HD DVD, Blu-ray, HD Rips) в форум Мультфильмы (HD Video)

LyaKich
 
Показать сообщения:    
Ответить на тему

Текущее время: 11-Дек 00:27

Часовой пояс: GMT + 4



Вы не можете начинать темы
Вы не можете отвечать на сообщения
Вы не можете редактировать свои сообщения
Вы не можете удалять свои сообщения
Вы не можете голосовать в опросах
Вы не можете прикреплять файлы к сообщениям
Вы не можете скачивать файлы