Ошибка

История игрушек 3Д / Toy Story 3D (Джон Лассетер, Ли Анкрич / John Lasseter, Lee Unkrich) [1995, 1999, 2010, анимация, семейный, приключения, комедия, Blu-Ray, 1080p] Трилогия BD3D + 2D

Ответить на тему
 
Автор Сообщение

Eвгений

Пол: Пол:Муж

Стаж: 6 лет 9 месяцев

Сообщений: 680

Россия
Рейтинг

post 13-Окт-2015 12:42 1[+]

[Цитировать] 

История игрушек / Toy Story

Год выпуска: 1995
Страна: США
Студия: Pixar Animation Studios & Walt Disney Pictures
Жанр: анимация, семейный, приключения, комедия
Режиссер: Джон Лассетер
Продолжительность: 01:21:25
Перевод: Профессиональный (дублированный)
Субтитры: (PGS): Английский, шведский, норвежский, датский, финский, русский, исландский
Роли озвучивали: Том Хэнкс (Вуди), Тим Аллен (Базз Лайтйер), Дон Риклз (мистер Кортофельная голова), Эстель Харрис (миссис Картофельная голова), Джон Ратценбергер (Хэмм), Джим Варни (спиралька), Уоллес Шоун (Рекс), Ли Эрмей (сержант), Энни Поттс (Бо Пил), Джефф Пиджон (инопланетянин), Джон Моррис (Энди)
Русский перевод: Александр Баргман (Вуди), Станислав Концевич (Базз Лайтйер), Артур Ваха (мистер Картофельная голова), Нина Потаповская (миссис Картофельная голова), Алексей Гурьев (Хэмм), Вадим Никитин (спиралька), Валерий Захарьев (Рекс), Геннадий Смирнов (сержант), Михаил Хрусталёв (инопланетянин), Иван Чабан (Энди).
Описание: Мальчику Эдди дарят новую игрушку - космического рейнджера База Цветика. Теперь Баз - любимая игрушка мальчика. Этим страшно недоволен ковбой Вудди - прежний любимец Эдди. При переезде Вудди скидывает База в окно. Об этом узнают другие игрушки и выкидывают Вудди туда же. Теперь им обоим необходимо найти путь домой, и два заклятых врага становятся лучшими друзьями...
Релиз:
Качество: Blu-Ray
Формат: ISO
Видео кодек: MPEG-4 AVC
Аудио кодек: DTS-HD, DD
Видео: 1920x1080 (16:9), 23,976 fps, ~24000 kbps.
Аудио: (English) DTS-HD, 24-bit, 5.1, 48 kHz, 4443 kbps. (DTS Core: 5.1-ES / 48 kHz / 1509 kbps / 24-bit)
Аудио2: (Swedish) Dolby Digital, 640 kbps, 5.1, 48 kHz.
Аудио3: (Norwegian) Dolby Digital, 640 kbps, 5.1, 48 kHz.
Аудио4: (Danish) Dolby Digital, 640 kbps, 5.1, 48 kHz.
Аудио5: (Finnish ) Dolby Digital, 640 kbps, 5.1, 48 kHz.
Аудио6: (RUS) Dolby Digital, 640 kbps, 5.1, 48 kHz (Дублированный)
Аудио7: (Icelandic) Dolby Digital, 640 kbps, 5.1, 48 kHz.
DISC INFO:

Disc Title: TOYSTORY_1_3D_BLUEBIRD
Disc Size: 38 985 255 652 bytes
Protection: AACS
BD-Java: No
Extras: Blu-ray 3D
BDInfo: 0.5.6

PLAYLIST REPORT:

Name: 00800.MPLS
Length: 1:21:04 (h:m:s)
Size: 21 088 450 560 bytes
Total Bitrate: 34,68 Mbps

VIDEO:

Codec Bitrate Description
----- ------- -----------
MPEG-4 AVC Video 24000 kbps 1080p / 23,976 fps / 16:9 / High Profile 4.1
MPEG-4 MVC Video 0 kbps

AUDIO:

Codec Language Bitrate Description
----- -------- ------- -----------
DTS-HD Master Audio English 4443 kbps 5.1-ES / 48 kHz / 4443 kbps / 24-bit (DTS Core: 5.1-ES / 48 kHz / 1509 kbps / 24-bit)
Dolby Digital EX Audio Swedish 640 kbps 5.1-EX / 48 kHz / 640 kbps
Dolby Digital EX Audio Norwegian 640 kbps 5.1-EX / 48 kHz / 640 kbps
Dolby Digital EX Audio Danish 640 kbps 5.1-EX / 48 kHz / 640 kbps
Dolby Digital EX Audio Finnish 640 kbps 5.1-EX / 48 kHz / 640 kbps
Dolby Digital EX Audio Russian 640 kbps 5.1-EX / 48 kHz / 640 kbps
Dolby Digital EX Audio Icelandic 640 kbps 5.1-EX / 48 kHz / 640 kbps

SUBTITLES:

Codec Language Bitrate Description
----- -------- ------- -----------
Presentation Graphics English 42,873 kbps
Presentation Graphics English 54,881 kbps
Presentation Graphics Swedish 32,014 kbps
Presentation Graphics Norwegian 32,621 kbps
Presentation Graphics Danish 34,404 kbps
Presentation Graphics Finnish 33,729 kbps
Presentation Graphics Russian 39,948 kbps
Presentation Graphics Icelandic 42,616 kbps
Presentation Graphics Norwegian 0,307 kbps
Presentation Graphics Danish 0,314 kbps
Presentation Graphics Finnish 0,300 kbps
Presentation Graphics Icelandic 0,269 kbps

FILES:

Name Time In Length Size Total Bitrate
---- ------- ------ ---- -------------
00272.M2TS 0:00:00.000 0:02:02.247 523 223 040 34 240
00274.M2TS 0:02:02.247 0:02:14.259 588 232 704 35 051
00280.M2TS 0:04:16.506 0:13:11.081 3 444 172 800 34 830
00282.M2TS 0:17:27.588 0:00:20.478 89 026 560 34 778
00284.M2TS 0:17:48.066 0:08:48.569 2 310 641 664 34 972
00286.M2TS 0:26:36.636 0:00:18.852 80 486 400 34 155
00288.M2TS 0:26:55.488 0:19:45.475 5 124 225 024 34 580
00290.M2TS 0:46:40.964 0:00:43.460 193 400 832 35 601
00292.M2TS 0:47:24.424 0:29:42.405 7 780 669 440 34 922
00294.M2TS 1:17:06.830 0:03:33.004 853 131 264 32 042
00296.M2TS 1:20:39.834 0:00:25.108 101 240 832 32 257

CHAPTERS:

Number Time In Length Avg Video Rate Max 1-Sec Rate Max 1-Sec Time Max 5-Sec Rate Max 5-Sec Time Max 10Sec Rate Max 10Sec Time Avg Frame Size Max Frame Size Max Frame Time
------ ------- ------ -------------- -------------- -------------- -------------- -------------- -------------- -------------- -------------- -------------- --------------
1 0:00:00.000 0:02:02.247 23 988 kbps 38 437 kbps 00:00:00.000 30 298 kbps 00:00:26.818 29 889 kbps 00:00:14.055 125 018 bytes 639 584 bytes 00:01:04.481
2 0:02:02.247 0:01:58.118 24 273 kbps 33 551 kbps 00:03:55.234 29 524 kbps 00:03:18.781 28 202 kbps 00:02:58.845 126 551 bytes 637 335 bytes 00:03:27.123
3 0:04:00.365 0:02:33.653 24 108 kbps 33 564 kbps 00:06:04.072 29 897 kbps 00:05:23.406 28 172 kbps 00:05:56.606 125 686 bytes 640 381 bytes 00:04:15.922
4 0:06:34.018 0:02:45.248 24 191 kbps 33 130 kbps 00:08:42.063 29 996 kbps 00:08:32.595 27 818 kbps 00:08:50.071 126 121 bytes 639 551 bytes 00:09:15.388
5 0:09:19.267 0:04:57.714 24 112 kbps 33 685 kbps 00:10:44.435 29 785 kbps 00:11:33.567 28 866 kbps 00:11:33.651 125 708 bytes 639 274 bytes 00:11:45.704
6 0:14:16.981 0:05:53.269 24 155 kbps 33 426 kbps 00:14:45.426 29 998 kbps 00:15:40.189 28 906 kbps 00:15:37.186 125 935 bytes 639 855 bytes 00:17:43.687
7 0:20:10.250 0:02:06.960 23 496 kbps 33 617 kbps 00:20:54.670 30 526 kbps 00:20:50.666 28 299 kbps 00:20:47.704 122 495 bytes 640 473 bytes 00:20:56.672
8 0:22:17.210 0:02:07.752 25 032 kbps 32 629 kbps 00:22:43.862 30 125 kbps 00:23:40.585 29 031 kbps 00:22:18.211 130 506 bytes 640 412 bytes 00:23:08.720
9 0:24:24.963 0:01:36.262 24 126 kbps 35 744 kbps 00:25:43.500 30 208 kbps 00:25:00.999 28 587 kbps 00:24:56.995 125 782 bytes 640 546 bytes 00:25:25.440
10 0:26:01.226 0:03:27.707 24 299 kbps 33 082 kbps 00:27:13.047 30 337 kbps 00:27:43.036 28 700 kbps 00:27:40.658 126 682 bytes 639 292 bytes 00:26:11.236
11 0:29:28.933 0:00:40.415 21 590 kbps 31 686 kbps 00:29:39.569 25 945 kbps 00:29:39.527 24 350 kbps 00:29:35.565 112 563 bytes 638 914 bytes 00:30:07.013
12 0:30:09.349 0:05:00.508 24 505 kbps 33 596 kbps 00:30:30.912 30 552 kbps 00:30:26.908 29 796 kbps 00:30:22.820 127 756 bytes 640 859 bytes 00:30:46.386
13 0:35:09.857 0:04:15.546 24 600 kbps 35 941 kbps 00:39:24.195 30 049 kbps 00:37:57.650 29 731 kbps 00:37:57.441 128 251 bytes 632 537 bytes 00:35:34.340
14 0:39:25.404 0:03:34.130 23 693 kbps 33 607 kbps 00:42:26.877 29 634 kbps 00:39:37.583 28 860 kbps 00:39:33.120 123 523 bytes 640 862 bytes 00:41:16.015
15 0:42:59.535 0:00:43.793 19 499 kbps 29 853 kbps 00:43:06.291 25 136 kbps 00:43:02.454 23 570 kbps 00:43:00.285 101 659 bytes 616 058 bytes 00:43:03.539
16 0:43:43.328 0:02:42.370 23 052 kbps 34 964 kbps 00:44:19.865 29 413 kbps 00:43:46.540 27 477 kbps 00:43:43.328 120 185 bytes 639 627 bytes 00:46:05.679
17 0:46:25.699 0:00:54.471 24 300 kbps 33 164 kbps 00:46:59.316 28 823 kbps 00:47:05.948 28 146 kbps 00:46:46.678 126 689 bytes 608 151 bytes 00:47:00.317
18 0:47:20.170 0:01:47.941 23 798 kbps 33 553 kbps 00:48:11.680 30 026 kbps 00:47:37.270 28 866 kbps 00:47:35.686 124 072 bytes 636 772 bytes 00:48:12.681
19 0:49:08.111 0:02:00.411 26 545 kbps 33 504 kbps 00:49:21.833 30 235 kbps 00:51:02.976 29 940 kbps 00:50:32.362 138 393 bytes 551 386 bytes 00:50:56.303
20 0:51:08.523 0:02:41.411 23 865 kbps 32 844 kbps 00:53:17.110 29 482 kbps 00:52:02.160 28 817 kbps 00:52:00.158 124 419 bytes 637 253 bytes 00:52:52.085
21 0:53:49.934 0:02:33.778 25 366 kbps 33 353 kbps 00:55:31.953 30 223 kbps 00:56:16.915 29 736 kbps 00:56:13.703 132 247 bytes 639 842 bytes 00:56:11.451
22 0:56:23.713 0:00:51.050 23 701 kbps 32 050 kbps 00:56:39.229 30 147 kbps 00:56:34.641 27 713 kbps 00:56:31.596 123 566 bytes 616 964 bytes 00:56:36.726
23 0:57:14.764 0:04:26.307 23 569 kbps 33 171 kbps 00:57:16.432 30 074 kbps 01:01:32.146 29 757 kbps 01:01:27.934 122 875 bytes 640 285 bytes 00:59:51.713
24 1:01:41.072 0:01:09.027 24 116 kbps 33 015 kbps 01:02:48.389 29 510 kbps 01:02:21.988 27 593 kbps 01:02:18.401 125 729 bytes 640 616 bytes 01:01:57.672
25 1:02:50.099 0:01:58.993 23 751 kbps 33 259 kbps 01:04:47.216 29 715 kbps 01:03:15.041 28 422 kbps 01:03:13.456 123 829 bytes 640 464 bytes 01:03:01.861
26 1:04:49.093 0:03:09.564 24 626 kbps 34 297 kbps 01:05:09.655 30 388 kbps 01:05:29.091 29 305 kbps 01:05:24.670 128 390 bytes 640 816 bytes 01:04:57.977
27 1:07:58.657 0:05:11.644 24 787 kbps 35 843 kbps 01:11:27.366 30 643 kbps 01:11:13.560 29 963 kbps 01:11:08.555 129 230 bytes 640 898 bytes 01:08:17.259
28 1:13:10.302 0:02:29.774 22 371 kbps 32 979 kbps 01:14:03.522 30 159 kbps 01:14:27.462 29 297 kbps 01:14:05.649 116 633 bytes 640 230 bytes 01:13:51.760
29 1:15:40.077 0:01:28.296 23 426 kbps 33 322 kbps 01:16:38.593 28 832 kbps 01:16:56.945 28 268 kbps 01:16:53.275 122 132 bytes 638 854 bytes 01:16:23.203
30 1:17:08.373 0:03:56.569 21 866 kbps 32 429 kbps 01:20:45.757 30 055 kbps 01:20:41.753 28 978 kbps 01:19:18.587 114 018 bytes 567 061 bytes 01:19:24.968

История игрушек 2 / Toy Story 2

Год выпуска: 1999
Страна: США
Студия: Pixar Animation Studios & Walt Disney Pictures
Жанр: анимация, семейный, приключения, комедия
Продолжительность: 01:32:55
Перевод: Профессиональный (дублированный)
Субтитры: (PGS): Английский, русский, португальский
Режиссер: Джон Лассетер
Роли озвучивали: Том Хэнкс (Вуди), Тим Аллен (Базз Лайтйер), Джоан Кьюсак (Джесси), Келси Грэммер (старатель Пит Вонючка), Дон Риклз (мистер Кортофельная голова), Эстель Харрис (миссис Картофельная голова), Джим Варни (спиралька), Уоллес Шоун (Рекс), Джон Ратценбергер (Хэмм), Энни Поттс (Бо Пил), Эндрю Стэнтон (император Зург).
Русский перевод: Александр Баргман (Вуди), Станислав Концевич (Базз Лайтйер), Александра Фатхи (Джесси), Игорь Ефимов (старатель Пит Вонючка), Артур Ваха (мистер Картофельная голова), Нина Потаповская (миссис Картофельная голова), Вадим Никитин (спиралька), Валерий Захарьев (Рекс).
Описание: Даже несмышленный малыш знает то, о чем не догадывается ни один взрослый: если выключить в комнате свет и плотно закрыть за собой дверь, неподвижные игрушки оживут и отправятся в захватывающее путешествие. В этом замечательном мультфильме вы попадаете в самый необычный мир, который только видели, и узнаете, в какие удивительные игры играют игрушки, когда вдалеке затихают ваши шаги...
Релиз:
Качество: Blu-Ray
Формат: ISO
Видео кодек: MPEG-4
Аудио кодек: DTS-HD, DD
Видео: 1920x1080 (16:9), 23,976 fps, 24303 kbps.
Аудио: (English) Dolby Digital, 320 kbps, 2.0, 48 kHz
Аудио2: (English) DTS-HD Master, 24-bit, 5.1, 48 kHz, 4048 kbps. (DTS Core: 5.1-ES / 48 kHz / 1509 kbps / 24-bit)
Аудио3: (Portuguese) Dolby Digital, 640 kbps, 5.1, 48 kHz.
Аудио4: (Russian) Dolby Digital, 640 kbps, 5.1, 48 kHz (Дублированный)
DISC INFO:

Disc Title: TOYSTORY_2_3D_BLUEBIRD
Disc Size: 38 538 114 366 bytes
Protection: AACS
BD-Java: No
Extras: Blu-ray 3D
BDInfo: 0.5.6

PLAYLIST REPORT:

Name: 00800.MPLS
Length: 1:32:24 (h:m:s)
Size: 22 102 382 592 bytes
Total Bitrate: 31,89 Mbps

VIDEO:

Codec Bitrate Description
----- ------- -----------
MPEG-4 AVC Video 24303 kbps 1080p / 23,976 fps / 16:9 / High Profile 4.1

AUDIO:

Codec Language Bitrate Description
----- -------- ------- -----------
Dolby Digital Audio English 320 kbps 2.0 / 48 kHz / 320 kbps / Dolby Surround
DTS-HD Master Audio English 4038 kbps 5.1-ES / 48 kHz / 4038 kbps / 24-bit (DTS Core: 5.1-ES / 48 kHz / 1509 kbps / 24-bit)
Dolby Digital EX Audio Portuguese 640 kbps 5.1-EX / 48 kHz / 640 kbps
Dolby Digital EX Audio Russian 640 kbps 5.1-EX / 48 kHz / 640 kbps

SUBTITLES:

Codec Language Bitrate Description
----- -------- ------- -----------
Presentation Graphics English 40,240 kbps
Presentation Graphics English 50,532 kbps
Presentation Graphics Portuguese 35,465 kbps
Presentation Graphics Russian 39,140 kbps
Presentation Graphics Portuguese 0,458 kbps

FILES:

Name Time In Length Size Total Bitrate
---- ------- ------ ---- -------------
00002.M2TS 0:00:00.000 0:00:44.502 176 898 048 31 800
00274.M2TS 0:00:44.502 0:00:52.844 208 711 680 31 596
00276.M2TS 0:01:37.347 0:02:02.956 505 681 920 32 902
00282.M2TS 0:03:40.303 0:00:44.461 177 942 528 32 018
00284.M2TS 0:04:24.764 0:13:45.449 3 269 492 736 31 687
00290.M2TS 0:18:10.214 0:00:26.860 106 555 392 31 736
00292.M2TS 0:18:37.074 0:13:55.584 3 327 080 448 31 854
00298.M2TS 0:32:32.658 0:00:33.116 129 490 944 31 281
00300.M2TS 0:33:05.775 0:06:58.876 1 675 941 888 32 008
00304.M2TS 0:40:04.652 0:00:40.290 159 264 768 31 623
00306.M2TS 0:40:44.942 0:02:15.385 531 320 832 31 396
00312.M2TS 0:43:00.327 0:00:29.154 117 958 656 32 368
00314.M2TS 0:43:29.481 0:07:18.396 1 746 216 960 31 866
00321.M2TS 0:50:47.878 0:00:45.378 175 681 536 30 972
00322.M2TS 0:51:33.256 0:33:35.388 8 067 231 744 32 023
00328.M2TS 1:25:08.645 0:00:39.330 167 374 848 34 044
00330.M2TS 1:25:47.976 0:06:36.437 1 559 537 664 31 471

CHAPTERS:

Number Time In Length Avg Video Rate Max 1-Sec Rate Max 1-Sec Time Max 5-Sec Rate Max 5-Sec Time Max 10Sec Rate Max 10Sec Time Avg Frame Size Max Frame Size Max Frame Time
------ ------- ------ -------------- -------------- -------------- -------------- -------------- -------------- -------------- -------------- -------------- --------------
1 0:00:00.000 0:01:23.583 25 184 kbps 33 079 kbps 00:01:01.144 29 905 kbps 00:00:14.389 29 744 kbps 00:00:14.389 131 231 bytes 423 432 bytes 00:01:17.076
2 0:01:23.583 0:03:24.704 24 345 kbps 39 029 kbps 00:03:01.139 31 086 kbps 00:01:39.224 29 500 kbps 00:02:34.696 126 924 bytes 633 325 bytes 00:03:39.510
3 0:04:48.287 0:02:47.500 23 903 kbps 30 570 kbps 00:04:48.496 29 066 kbps 00:04:48.371 28 230 kbps 00:04:48.454 124 617 bytes 462 537 bytes 00:07:09.554
4 0:07:35.788 0:03:05.143 24 274 kbps 31 334 kbps 00:10:39.930 28 468 kbps 00:08:07.445 28 088 kbps 00:09:34.865 126 552 bytes 461 227 bytes 00:08:44.690
5 0:10:40.931 0:01:13.865 23 273 kbps 31 145 kbps 00:10:44.602 30 063 kbps 00:10:41.307 26 062 kbps 00:10:40.931 121 336 bytes 449 692 bytes 00:10:57.907
6 0:11:54.797 0:00:52.302 22 036 kbps 30 716 kbps 00:12:03.055 28 627 kbps 00:12:00.344 25 018 kbps 00:11:57.341 114 887 bytes 351 819 bytes 00:12:18.779
7 0:12:47.099 0:02:42.829 24 486 kbps 33 643 kbps 00:15:25.924 29 001 kbps 00:15:08.991 28 197 kbps 00:15:03.777 127 659 bytes 639 416 bytes 00:14:31.328
8 0:15:29.928 0:02:45.915 24 342 kbps 34 191 kbps 00:17:14.324 28 593 kbps 00:17:29.465 27 779 kbps 00:17:25.210 126 905 bytes 640 525 bytes 00:15:34.683
9 0:18:15.844 0:02:01.746 25 185 kbps 31 095 kbps 00:19:31.628 29 105 kbps 00:19:19.950 27 721 kbps 00:20:02.868 131 301 bytes 500 933 bytes 00:18:49.878
10 0:20:17.591 0:03:56.444 23 702 kbps 31 543 kbps 00:20:54.503 29 928 kbps 00:20:45.118 29 649 kbps 00:20:45.410 123 571 bytes 563 117 bytes 00:23:25.320
11 0:24:14.035 0:01:40.350 23 388 kbps 30 207 kbps 00:24:47.152 29 388 kbps 00:24:45.817 28 531 kbps 00:24:43.607 121 935 bytes 485 531 bytes 00:25:22.896
12 0:25:54.386 0:04:37.735 24 767 kbps 30 773 kbps 00:25:59.891 29 499 kbps 00:25:58.098 28 592 kbps 00:26:42.183 129 123 bytes 520 992 bytes 00:30:19.359
13 0:30:32.121 0:01:16.326 25 154 kbps 31 395 kbps 00:30:58.898 29 605 kbps 00:30:57.814 29 199 kbps 00:30:57.772 131 143 bytes 634 320 bytes 00:30:54.936
14 0:31:48.448 0:01:03.021 25 020 kbps 31 231 kbps 00:32:50.468 29 935 kbps 00:32:46.464 29 792 kbps 00:32:41.459 130 442 bytes 620 220 bytes 00:32:04.380
15 0:32:51.469 0:03:53.524 23 505 kbps 32 486 kbps 00:34:16.345 29 461 kbps 00:34:03.416 28 526 kbps 00:34:01.205 122 546 bytes 611 731 bytes 00:35:05.394
16 0:36:44.994 0:02:24.143 25 739 kbps 32 637 kbps 00:37:19.403 30 154 kbps 00:37:28.371 29 920 kbps 00:37:28.204 134 192 bytes 634 025 bytes 00:37:14.190
17 0:39:09.138 0:00:43.918 24 397 kbps 29 995 kbps 00:39:10.890 28 510 kbps 00:39:10.890 26 981 kbps 00:39:10.973 127 194 bytes 438 723 bytes 00:39:17.771
18 0:39:53.057 0:01:13.281 23 628 kbps 33 168 kbps 00:40:10.616 27 857 kbps 00:40:11.242 26 830 kbps 00:40:07.071 123 185 bytes 630 794 bytes 00:40:02.566
19 0:41:06.338 0:01:19.871 24 558 kbps 30 673 kbps 00:41:57.222 28 278 kbps 00:42:21.205 27 733 kbps 00:42:16.200 128 036 bytes 401 402 bytes 00:41:59.808
20 0:42:26.210 0:02:15.134 24 525 kbps 33 197 kbps 00:42:46.480 30 438 kbps 00:42:42.476 28 017 kbps 00:42:37.554 127 863 bytes 638 044 bytes 00:42:47.439
21 0:44:41.345 0:02:17.220 25 153 kbps 35 179 kbps 00:46:56.480 30 301 kbps 00:46:52.434 28 460 kbps 00:45:44.199 131 136 bytes 636 000 bytes 00:46:57.814
22 0:46:58.565 0:06:25.384 23 774 kbps 35 326 kbps 00:51:45.685 30 678 kbps 00:51:41.723 30 331 kbps 00:51:36.718 123 949 bytes 609 847 bytes 00:51:51.274
23 0:53:23.950 0:02:55.967 24 436 kbps 31 312 kbps 00:54:50.203 30 172 kbps 00:54:15.960 28 633 kbps 00:54:12.999 127 397 bytes 488 422 bytes 00:56:17.957
24 0:56:19.918 0:04:50.123 24 251 kbps 33 770 kbps 00:57:10.093 29 317 kbps 01:00:36.090 28 878 kbps 00:59:05.708 126 436 bytes 637 431 bytes 00:57:11.094
25 1:01:10.041 0:01:04.230 24 584 kbps 30 855 kbps 01:02:12.603 29 648 kbps 01:02:08.891 28 729 kbps 01:02:04.262 128 172 bytes 432 765 bytes 01:01:13.169
26 1:02:14.272 0:02:09.629 24 879 kbps 32 268 kbps 01:04:22.483 28 866 kbps 01:04:15.559 28 284 kbps 01:04:13.432 129 707 bytes 493 264 bytes 01:04:10.971
27 1:04:23.901 0:03:36.507 23 380 kbps 32 907 kbps 01:07:22.454 29 656 kbps 01:07:18.492 28 419 kbps 01:07:13.445 121 892 bytes 637 342 bytes 01:07:25.416
28 1:08:00.409 0:01:51.778 23 395 kbps 31 759 kbps 01:09:10.562 27 008 kbps 01:08:21.639 25 826 kbps 01:08:19.678 121 970 bytes 447 208 bytes 01:09:11.480
29 1:09:52.187 0:02:35.280 25 670 kbps 31 982 kbps 01:10:18.422 29 478 kbps 01:10:33.812 28 843 kbps 01:10:27.806 133 829 bytes 473 441 bytes 01:10:06.827
30 1:12:27.467 0:02:31.025 23 777 kbps 29 355 kbps 01:14:52.612 26 852 kbps 01:13:56.390 26 382 kbps 01:13:53.178 123 962 bytes 424 602 bytes 01:12:28.468
31 1:14:58.493 0:02:29.816 25 060 kbps 31 542 kbps 01:15:05.751 29 114 kbps 01:15:03.707 28 435 kbps 01:17:05.912 130 649 bytes 352 360 bytes 01:15:52.381
32 1:17:28.310 0:02:17.971 23 285 kbps 30 564 kbps 01:17:57.964 27 878 kbps 01:18:12.521 26 847 kbps 01:19:22.257 121 399 bytes 365 724 bytes 01:17:45.869
33 1:19:46.281 0:01:49.526 25 359 kbps 30 433 kbps 01:20:37.707 28 664 kbps 01:20:40.669 27 782 kbps 01:20:36.247 132 213 bytes 306 780 bytes 01:21:07.028
34 1:21:35.807 0:04:13.169 25 075 kbps 32 004 kbps 01:21:45.400 29 818 kbps 01:21:54.993 29 468 kbps 01:21:52.824 130 730 bytes 564 241 bytes 01:25:03.514
35 1:25:48.977 0:06:35.436 23 996 kbps 31 769 kbps 01:29:25.526 30 064 kbps 01:29:36.913 29 859 kbps 01:29:21.355 125 118 bytes 390 023 bytes 01:30:16.619

История игрушек 3 / Toy Story 3

Год выпуска: 2010
Страна: США
Студия: Pixar Animation Studios & Walt Disney Pictures
Жанр: анимация, семейный, приключения, комедия
Продолжительность: 01:42:33
Перевод: Профессиональный (дублированный)
Субтитры: (PGS): Английский, арабский, русский, индийский
Режиссер: Ли Анкрич
Продюссер: Джон Лассетер
Роли озвучивали: Том Хэнкс (шериф Вуди), Тим Аллен (Базз Лайтйер), Джоан Кьюсак (Джесси), Нед Битти (Лотсо), Дон Риклз (мистер Кортофельная голова), Эстель Харрис (миссис Картофельная голова), Блэйк Кларк (спиралька), Уоллес Шоун (Рекс), Джон Ратценбергер (Хэмм), Энни Поттс (Бо Пил), Майкл Китон (Кен), Джоди Бенсон (Барби), Бад Лаки (Клоун), Джефф Пиджон (инопланетяне).
Русский перевод: Александр Баргман (шериф Вуди), Станислав Концевич (Базз Лайтйер), Юлия Рудина (Джесси), Сергей Паршин (Лотсо), Артур Ваха (мистер Картофельная голова), Нина Потаповская (миссис Картофельная голова), Борис Улитин (спиралька), Валерий Захарьев (Рекс), Николай Басков (Кен), Оксана Фёдорова (Барби), Юрий Лазарев (Клоун), Андрей Лёвин (инопланетяне).
Описание: Энди почти 18 лет, ему остаётся 3 дня до отправки в колледж, в то время как его игрушки, в том числе Вуди и Базз Лайтер, гадают о своём будущем.
Куда забросит их судьба? На чердак, на свалку или, может быть, в детский сад «Солнышко»?
События развиваются в самом неожиданном направлении, и приключения полюбившихся героев продолжаются!
Релиз:
Качество: Blu-Ray
Формат: ISO
Видео кодек: MPEG-4
Аудио кодек: DTS-HD, DD
Видео: 1920x1080 (16:9), 23,976 fps, 24219 kbps.
Аудио: (English) Dolby Digital, 320 kbps, 2.0, 48 kHz.
Аудио2: (English) DTS-HD Master, 16-bit, 7.1, 48 kHz, 3251 kbps. (DTS Core: 5.1 / 48 kHz / 1509 kbps / 16-bit)
Аудио3: (English) DTS-HD Master, 24-bit, 5.1, 48 kHz, 4030 kbps. (DTS Core: 5.1-ES / 48 kHz / 1509 kbps / 24-bit)
Аудио4: (Arabic) Dolby Digital, 640 kbps, 5.1, 48 kHz.
Аудио5: (Russian) Dolby Digital, 640 kbps, 5.1, 48 kHz, (Дублированный)
Аудио6: (Hindi) Dolby Digital, 640 kbps, 5.1, 48 kHz.
DISC INFO:

Disc Title: TOYSTORY_3_3D_BLUEBIRD
Disc Size: 47 966 445 911 bytes
Protection: AACS
BD-Java: No
Extras: Blu-ray 3D
BDInfo: 0.5.6

PLAYLIST REPORT:

Name: 00801.MPLS
Length: 1:43:00 (h:m:s)
Size: 28 117 112 832 bytes
Total Bitrate: 36,40 Mbps

VIDEO:

Codec Bitrate Description
----- ------- -----------
MPEG-4 AVC Video 24219 kbps 1080p / 23,976 fps / 16:9 / High Profile 4.1
MPEG-4 MVC Video 233 kbps

AUDIO:

Codec Language Bitrate Description
----- -------- ------- -----------
Dolby Digital Audio English 320 kbps 2.0 / 48 kHz / 320 kbps / Dolby Surround
DTS-HD Master Audio English 3251 kbps 7.1 / 48 kHz / 3251 kbps / 16-bit (DTS Core: 5.1 / 48 kHz / 1509 kbps / 16-bit)
DTS-HD Master Audio English 4030 kbps 5.1-ES / 48 kHz / 4030 kbps / 24-bit (DTS Core: 5.1-ES / 48 kHz / 1509 kbps / 24-bit)
Dolby Digital EX Audio Arabic 640 kbps 5.1-EX / 48 kHz / 640 kbps
Dolby Digital EX Audio Russian 640 kbps 5.1-EX / 48 kHz / 640 kbps
Dolby Digital EX Audio Hindi 640 kbps 5.1-EX / 48 kHz / 640 kbps

SUBTITLES:

Codec Language Bitrate Description
----- -------- ------- -----------
Presentation Graphics English 39,382 kbps
Presentation Graphics English 47,592 kbps
Presentation Graphics Arabic 18,935 kbps
Presentation Graphics Russian 34,994 kbps
Presentation Graphics English 0,525 kbps
Presentation Graphics Arabic 0,552 kbps
Presentation Graphics Russian 0,504 kbps
Presentation Graphics Hindi 0,813 kbps

FILES:

Name Time In Length Size Total Bitrate
---- ------- ------ ---- -------------
00413.M2TS 0:00:00.000 0:00:44.335 248 825 856 44 898
00511.M2TS 0:00:44.335 0:00:27.569 126 185 472 36 616
00414.M2TS 0:01:11.905 0:01:59.661 670 119 936 44 801
00523.M2TS 0:03:11.566 0:00:18.643 86 071 296 36 933
00415.M2TS 0:03:30.209 0:00:46.254 256 358 400 44 339
00517.M2TS 0:04:16.464 0:00:12.595 57 661 440 36 622
00416.M2TS 0:04:29.060 0:07:17.270 1 984 290 816 36 303
00515.M2TS 0:11:46.330 0:01:23.208 363 964 416 34 993
00417.M2TS 0:13:09.538 0:00:27.068 120 864 768 35 721
00513.M2TS 0:13:36.607 0:00:49.424 221 927 424 35 922
00418.M2TS 0:14:26.031 0:01:12.489 327 315 456 36 123
00519.M2TS 0:15:38.520 0:00:21.813 104 706 048 38 401
00419.M2TS 0:16:00.334 0:00:42.959 202 868 736 37 779
00521.M2TS 0:16:43.293 0:01:24.542 375 478 272 35 530
00420.M2TS 0:18:07.836 0:01:16.034 348 229 632 36 639
00525.M2TS 0:19:23.870 0:01:40.183 458 225 664 36 591
00421.M2TS 0:21:04.054 0:22:01.570 5 941 573 632 35 967
00527.M2TS 0:43:05.624 0:01:31.132 411 414 528 36 116
00422.M2TS 0:44:36.757 0:03:42.764 1 021 016 064 36 667
00529.M2TS 0:48:19.521 0:00:33.867 145 569 792 34 386
00423.M2TS 0:48:53.388 0:01:20.872 362 459 136 35 855
00531.M2TS 0:50:14.261 0:02:01.204 543 092 736 35 846
00424.M2TS 0:52:15.465 0:13:11.832 3 636 860 928 36 744
00533.M2TS 1:05:27.298 0:00:29.195 139 696 128 38 278
00425.M2TS 1:05:56.493 0:01:06.024 296 036 352 35 870
00535.M2TS 1:07:02.518 0:01:37.847 438 165 504 35 824
00426.M2TS 1:08:40.365 0:02:00.203 549 439 488 36 567
00537.M2TS 1:10:40.569 0:01:29.547 413 435 904 36 935
00427.M2TS 1:12:10.117 0:02:12.799 602 038 272 36 268
00539.M2TS 1:14:22.916 0:00:22.814 102 690 816 36 009
00428.M2TS 1:14:45.730 0:00:39.164 182 132 736 37 204
00541.M2TS 1:15:24.895 0:00:56.848 269 740 032 37 959
00429.M2TS 1:16:21.743 0:01:14.074 347 713 536 37 553
00543.M2TS 1:17:35.817 0:00:57.182 269 611 008 37 720
00430.M2TS 1:18:32.999 0:01:52.821 536 666 112 38 054
00545.M2TS 1:20:25.820 0:00:21.271 106 371 072 40 006
00431.M2TS 1:20:47.091 0:04:12.502 1 188 483 072 37 655
00547.M2TS 1:24:59.594 0:04:24.305 1 159 876 608 35 107
00432.M2TS 1:29:23.899 0:04:54.377 1 306 042 368 35 493
00549.M2TS 1:34:18.277 0:01:35.720 442 970 112 37 022
00433.M2TS 1:35:53.997 0:00:24.315 112 453 632 36 997
00551.M2TS 1:36:18.313 0:00:23.773 107 575 296 36 200
00434.M2TS 1:36:42.087 0:05:23.823 1 272 219 648 31 430
00505.M2TS 1:42:05.910 0:00:29.988 136 599 552 36 441
00459.M2TS 1:42:35.899 0:00:24.482 122 075 136 39 889

CHAPTERS:

Number Time In Length Avg Video Rate Max 1-Sec Rate Max 1-Sec Time Max 5-Sec Rate Max 5-Sec Time Max 10Sec Rate Max 10Sec Time Avg Frame Size Max Frame Size Max Frame Time
------ ------- ------ -------------- -------------- -------------- -------------- -------------- -------------- -------------- -------------- -------------- --------------
1 0:00:00.000 0:04:53.543 24 189 kbps 32 897 kbps 00:03:23.536 29 949 kbps 00:00:14.389 29 867 kbps 00:00:16.474 126 095 bytes 580 175 bytes 00:03:59.280
2 0:04:53.543 0:01:26.711 26 770 kbps 33 286 kbps 00:06:13.998 29 977 kbps 00:06:09.994 29 718 kbps 00:05:12.311 139 565 bytes 455 068 bytes 00:04:55.086
3 0:06:20.254 0:05:17.150 23 835 kbps 32 100 kbps 00:09:08.839 28 725 kbps 00:10:19.076 27 962 kbps 00:10:16.490 124 266 bytes 533 095 bytes 00:11:22.264
4 0:11:37.405 0:03:39.761 23 776 kbps 30 127 kbps 00:11:42.868 27 932 kbps 00:11:40.366 26 982 kbps 00:11:40.324 123 955 bytes 462 417 bytes 00:13:13.542
5 0:15:17.166 0:03:17.030 25 088 kbps 31 904 kbps 00:16:25.734 29 855 kbps 00:17:16.535 28 073 kbps 00:16:18.268 130 798 bytes 493 954 bytes 00:15:39.104
6 0:18:34.196 0:00:49.674 24 063 kbps 31 228 kbps 00:18:34.863 25 656 kbps 00:18:56.051 25 202 kbps 00:18:50.170 125 453 bytes 316 246 bytes 00:18:35.197
7 0:19:23.870 0:06:53.246 24 190 kbps 32 131 kbps 00:19:28.375 30 078 kbps 00:21:14.606 29 002 kbps 00:20:35.901 126 118 bytes 524 536 bytes 00:21:09.893
8 0:26:17.117 0:02:42.287 23 726 kbps 31 521 kbps 00:26:22.789 28 139 kbps 00:26:21.788 26 889 kbps 00:26:54.195 123 696 bytes 482 104 bytes 00:26:19.035
9 0:28:59.404 0:02:48.418 24 759 kbps 34 621 kbps 00:30:26.866 29 916 kbps 00:31:36.853 29 584 kbps 00:31:36.811 129 084 bytes 635 183 bytes 00:31:17.542
10 0:31:47.822 0:01:34.511 24 404 kbps 31 323 kbps 00:32:45.796 29 737 kbps 00:32:33.242 28 745 kbps 00:32:30.573 127 233 bytes 480 702 bytes 00:32:08.759
11 0:33:22.333 0:02:27.730 24 131 kbps 31 060 kbps 00:35:45.142 29 230 kbps 00:35:41.555 28 404 kbps 00:34:48.794 125 807 bytes 459 782 bytes 00:34:49.378
12 0:35:50.064 0:01:40.058 23 141 kbps 29 214 kbps 00:37:12.938 27 254 kbps 00:37:19.945 26 893 kbps 00:37:15.483 120 645 bytes 380 165 bytes 00:35:51.065
13 0:37:30.122 0:02:41.202 26 410 kbps 32 558 kbps 00:39:09.972 29 850 kbps 00:38:02.613 29 745 kbps 00:37:57.608 137 689 bytes 634 140 bytes 00:39:11.974
14 0:40:11.325 0:01:01.311 21 343 kbps 23 998 kbps 00:40:23.087 22 722 kbps 00:41:01.750 22 242 kbps 00:41:02.626 111 273 bytes 378 165 bytes 00:41:12.636
15 0:41:12.636 0:02:24.853 24 760 kbps 30 299 kbps 00:42:00.142 29 415 kbps 00:42:12.654 28 286 kbps 00:42:12.237 129 087 bytes 295 262 bytes 00:43:16.176
16 0:43:37.489 0:01:11.780 24 521 kbps 29 677 kbps 00:43:49.042 28 354 kbps 00:43:45.247 28 016 kbps 00:43:41.160 127 840 bytes 238 296 bytes 00:44:32.127
17 0:44:49.269 0:03:30.251 24 937 kbps 31 090 kbps 00:47:21.254 29 231 kbps 00:48:08.844 27 826 kbps 00:48:08.009 130 012 bytes 368 138 bytes 00:47:21.588
18 0:48:19.521 0:04:08.539 23 930 kbps 31 168 kbps 00:50:34.906 30 048 kbps 00:50:31.027 28 993 kbps 00:50:26.439 124 761 bytes 410 785 bytes 00:50:31.736
19 0:52:28.061 0:01:23.833 27 227 kbps 30 145 kbps 00:52:43.910 29 473 kbps 00:52:39.948 29 331 kbps 00:52:34.943 141 950 bytes 348 754 bytes 00:52:30.939
20 0:53:51.895 0:03:20.074 25 459 kbps 31 472 kbps 00:54:45.531 29 474 kbps 00:53:56.566 28 641 kbps 00:56:36.351 132 730 bytes 587 462 bytes 00:55:36.666
21 0:57:11.969 0:01:08.735 24 542 kbps 32 558 kbps 00:57:12.011 28 046 kbps 00:57:12.011 27 031 kbps 00:57:23.648 127 953 bytes 608 744 bytes 00:58:13.114
22 0:58:20.705 0:02:49.294 24 501 kbps 30 504 kbps 01:00:44.432 27 209 kbps 01:00:58.237 26 985 kbps 01:00:53.316 127 737 bytes 410 680 bytes 01:00:23.369
23 1:01:09.999 0:00:56.639 26 184 kbps 31 816 kbps 01:02:04.595 29 367 kbps 01:01:18.424 28 842 kbps 01:01:18.299 136 512 bytes 581 067 bytes 01:01:14.587
24 1:02:06.639 0:00:50.383 24 039 kbps 30 435 kbps 01:02:39.171 26 119 kbps 01:02:14.689 25 279 kbps 01:02:36.168 125 330 bytes 320 052 bytes 01:02:51.642
25 1:02:57.022 0:03:38.009 24 270 kbps 32 264 kbps 01:05:44.315 29 496 kbps 01:05:42.646 29 397 kbps 01:05:42.354 126 530 bytes 444 518 bytes 01:06:33.030
26 1:06:35.032 0:04:46.703 24 387 kbps 32 262 kbps 01:09:26.620 28 607 kbps 01:09:19.363 27 602 kbps 01:09:19.363 127 144 bytes 466 196 bytes 01:09:24.076
27 1:11:21.735 0:04:35.525 24 857 kbps 31 307 kbps 01:11:48.303 29 069 kbps 01:11:21.777 28 097 kbps 01:11:23.320 129 594 bytes 555 075 bytes 01:15:10.881
28 1:15:57.260 0:01:38.556 24 538 kbps 30 558 kbps 01:16:17.697 28 768 kbps 01:16:16.488 27 792 kbps 01:16:16.404 127 929 bytes 323 213 bytes 01:15:57.510
29 1:17:35.817 0:02:07.377 24 451 kbps 31 050 kbps 01:18:32.415 28 410 kbps 01:19:33.893 27 260 kbps 01:19:29.722 127 478 bytes 302 705 bytes 01:18:27.243
30 1:19:43.194 0:03:18.740 25 357 kbps 33 170 kbps 01:20:33.953 30 162 kbps 01:22:40.788 29 898 kbps 01:22:35.700 132 202 bytes 461 380 bytes 01:22:54.719
31 1:23:01.934 0:01:57.659 25 001 kbps 32 695 kbps 01:24:28.396 30 218 kbps 01:23:10.651 29 809 kbps 01:23:05.646 130 342 bytes 522 775 bytes 01:24:34.068
32 1:24:59.594 0:03:15.987 23 391 kbps 32 050 kbps 01:25:09.687 29 911 kbps 01:25:16.861 28 228 kbps 01:25:17.528 121 953 bytes 639 767 bytes 01:25:25.870
33 1:28:15.581 0:06:02.695 24 545 kbps 35 839 kbps 01:32:22.411 30 411 kbps 01:32:54.193 29 828 kbps 01:32:52.441 127 968 bytes 639 805 bytes 01:28:48.697
34 1:34:18.277 0:08:42.104 21 050 kbps 36 540 kbps 01:42:57.337 30 581 kbps 01:42:37.442 29 073 kbps 01:42:36.024 109 755 bytes 431 349 bytes 01:37:15.829
info [Профиль]  [ЛС] 

iCroW

Пол: Пол:Муж

Стаж: 7 лет 3 месяца

Сообщений: 151

Украина
Рейтинг

post 13-Окт-2015 16:16 (спустя 3 часа) [-]1[+]

[Цитировать] 

Первый и лучший, 3д мультик моего детства. Имхо.

_________________
info [Профиль]  [ЛС] 

sodmod

Пол: Пол:Муж

Стаж: 4 года 10 месяцев

Сообщений: 84

СССР
Рейтинг

post 14-Окт-2015 00:10 (спустя 7 часов) [-]0[+]

[Цитировать] 

Огромное спасибо за раздачу!
info [Профиль]  [ЛС] 
Показать сообщения:    
Ответить на тему

Текущее время: 05-Дек 12:36

Часовой пояс: GMT + 4



Вы не можете начинать темы
Вы не можете отвечать на сообщения
Вы не можете редактировать свои сообщения
Вы не можете удалять свои сообщения
Вы не можете голосовать в опросах
Вы не можете прикреплять файлы к сообщениям
Вы не можете скачивать файлы