Ошибка

Миньоны / Minions (Кайл Балда, Пьер Коффан) [2015, мультфильм, комедия, семейный, WEB-DL 1080p]

Ответить на тему
 
Автор Сообщение

BZzz

Пол: Пол:Муж

Стаж: 5 лет 1 месяц

Сообщений: 3647

Россия
Рейтинг

post 08-Окт-2015 00:18 9[+]

[Цитировать] 

Миньоны / Minions
«Ой, всё»




Год выпуска: 2015
Страна: США
Жанр: мультфильм, комедия, семейный
Продолжительность: 01:30:53
Перевод: Профессиональный (дублированный)[цифровая лицензия iTunes]

Режиссер: Кайл Балда, Пьер Коффан

В ролях: Сандра Буллок☆Sandra Bullock (Scarlet Overkill, озвучка), Джон Хэмм☆Jon Hamm (Herb Overkill, озвучка), Майкл Китон☆Michael Keaton (Walter Nelson, озвучка), Эллисон Дженни☆Allison Janney (Madge Nelson, озвучка), Стив Куган☆Steve Coogan (Professor Flux / Tower Guard, озвучка), Дженнифер Сондерс☆Jennifer Saunders (The Queen, озвучка), Джеффри Раш☆Geoffrey Rush (рассказчик, озвучка), Стив Карелл☆Steve Carell (Young Gru, озвучка), Пьер Коффан☆Pierre Coffin (The Minions, озвучка), Кэти Миксон☆Katy Mixon (Tina, озвучка)


Описание: Миньоны живут на планете гораздо дольше нас. У них одна навязчивая идея — служить самой Гадкой личности из имеющихся в наличии. Динозавры, фараоны, Дракула, Наполеон — все они оказались недолговечны. И тогда миньоны рванули в Нью-Йорк. Их ждут деньги, власть, роковая суперзлодейка Скарлет Оверкилл и, конечно же, вкуснейшая «банана»! Во всяком случае, так им кажется.

Бюджет: $74 000 000
Сборы в США: $333 923 840
Сборы в мире: + $812 244 399 = $1 146 168 239
Сборы в России: $28 876 502
Рейтинг MPAA: Рекомендуется присутствие родителей



Качество: WEB-DL 1080p
Формат: MKV
Видео кодек: AVC
Аудио кодек: AC3
Видео: 1916x1032 (1.85:1), 23.976 fps, High@L4.0, 4 880 Kbps
Аудио #1: AC3, 384 Kbps, 48.0 KHz, 6 ch

» Во время сцены со сказкой на ночь на фоне играет произведение Сергея Прокофьева «Петя и волк».

» Это первый фильм, в котором Сандра Буллок изображает злодейку.

» Режиссер Пьер Коффан озвучил всех 899 миньонов.

» Соло, которое играет Стюарт на новой электрогитаре в конце мультфильма — это композиция Эдварда Ван Халена «Eruption».

» Мировые сборы «Миньонов» превысили один миллиард долларов. Таким образом, Universal стала первой в истории студией, у которой сразу три фильма за один год покорили эту отметку. Другие два фильма — это «Форсаж 7» (2015) и «Мир Юрского периода» (2015).

» Корону Британской империи, которую носит Боб во время сцены «коронации», можно также увидеть и в фильме «Гадкий я» (2010), когда все миньоны предлагают сокровища, чтобы помочь Грю осуществить кражу Луны.
General
Unique ID : 201502093949923991072451337100848832691 (0x9797E443CBD7DBD981B9A204568CA0B3)
Complete name : Minions.2015.D.WEB-DL.1080p.mkv
Format : Matroska
Format version : Version 4 / Version 2
File size : 3.41 GiB
Duration : 1h 30mn
Overall bit rate : 5 371 Kbps
Encoded date : UTC 2015-10-07 18:13:58
Writing application : mkvmerge v6.9.1 ('Blue Panther') 64bit built on Apr 18 2014 18:23:38
Writing library : libebml v1.3.0 + libmatroska v1.4.1

Video
ID : 1
Format : AVC
Format/Info : Advanced Video Codec
Format profile : High@L4.0
Format settings, CABAC : Yes
Format settings, ReFrames : 4 frames
Codec ID : V_MPEG4/ISO/AVC
Duration : 1h 30mn
Bit rate : 4 880 Kbps
Width : 1 916 pixels
Height : 1 032 pixels
Display aspect ratio : 1.85:1
Frame rate mode : Constant
Frame rate : 23.976 fps
Color space : YUV
Chroma subsampling : 4:2:0
Bit depth : 8 bits
Scan type : Progressive
Bits/(Pixel*Frame) : 0.103
Stream size : 3.10 GiB (91%)
Language : English
Default : Yes
Forced : No
Color primaries : BT.709
Transfer characteristics : BT.709
Matrix coefficients : BT.709

Audio
ID : 2
Format : AC-3
Format/Info : Audio Coding 3
Mode extension : CM (complete main)
Format settings, Endianness : Big
Codec ID : A_AC3
Duration : 1h 30mn
Bit rate mode : Constant
Bit rate : 384 Kbps
Channel(s) : 6 channels
Channel positions : Front: L C R, Side: L R, LFE
Sampling rate : 48.0 KHz
Bit depth : 16 bits
Compression mode : Lossy
Stream size : 250 MiB (7%)
Language : Russian
Default : Yes
Forced : No

Menu
00:00:00.000 : en:глава 1
00:05:41.000 : en:глава 2
00:11:34.000 : en:глава 3
00:16:57.000 : en:глава 4
00:22:30.000 : en:глава 5
00:27:00.000 : en:глава 6
00:32:56.000 : en:глава 7
00:37:30.000 : en:глава 8
00:41:00.000 : en:глава 9
00:45:31.000 : en:глава 10
00:49:25.000 : en:глава 11
00:53:45.000 : en:глава 12
00:57:06.000 : en:глава 13
01:01:38.000 : en:глава 14
01:05:56.000 : en:глава 15
01:07:57.000 : en:глава 16
01:11:19.000 : en:глава 17
01:15:34.000 : en:глава 18
01:21:14.000 : en:глава 19
01:28:26.000 : en:глава 20
info [Профиль]  [ЛС] 

goggi

Пол: Пол:Муж

Стаж: 3 года 10 месяцев

Сообщений: 59

Рейтинг

post 08-Окт-2015 17:54 (спустя 17 часов) [-]3[+]

[Цитировать] 

Наконец то в качестве!
info [Профиль]  [ЛС] 

scandall

Пол: Пол:Муж

Стаж: 7 лет 2 месяца

Сообщений: 3000

Предупреждений: 4

Россия
Рейтинг

post 08-Окт-2015 18:49 (спустя 55 минут) [-]0[+]

[Цитировать] 

goggi писал(а):

Наконец то в качестве!
В качестве, друг, это когда > 15гб. Это пока так - для нетерпеливых.

_________________
Где твои симптомы ?
info [Профиль]  [ЛС] 

kaktus489

Стаж: 3 года 10 месяцев

Сообщений: 47

Норвегия
Рейтинг

post 09-Окт-2015 23:34 (спустя 1 день 4 часа) [-]0[+]

[Цитировать] 

В эпизоде не сборная России снималась?

_________________
Борьба с пиратством - это когда со злыми дядями, которые бесплатно качают музыку и фильмы, борются добрые дяди, которые бесплатно качают нефть и газ.
info [Профиль]  [ЛС] 

post 06-Фев-2016 12:09 (спустя 3 месяца 27 дней) [-]0[+]

Топик был перенесен из форума Новинки 2014-2015 (Web-DL, DVD, HD DVD, Blu-ray, HD Rips) в форум Мультфильмы (HD Video)

LyaKich
 
Показать сообщения:    
Ответить на тему

Текущее время: 04-Дек 01:53

Часовой пояс: GMT + 4



Вы не можете начинать темы
Вы не можете отвечать на сообщения
Вы не можете редактировать свои сообщения
Вы не можете удалять свои сообщения
Вы не можете голосовать в опросах
Вы не можете прикреплять файлы к сообщениям
Вы не можете скачивать файлы