Ошибка

Миньоны / Minions (Кайл Балда, Пьер Коффан) [2015, мультфильм, комедия, семейный, WEB-DLRip]

Ответить на тему
 
Автор Сообщение

BZzz

Пол: Пол:Муж

Стаж: 5 лет 1 месяц

Сообщений: 3647

Россия
Рейтинг

post 08-Окт-2015 00:09 0[+]

[Цитировать] 

Миньоны / Minions
«Ой, всё»




Год выпуска: 2015
Страна: США
Жанр: мультфильм, комедия, семейный
Продолжительность: 01:30:53
Перевод: Профессиональный (дублированный)[цифровая лицензия iTunes]

Режиссер: Кайл Балда, Пьер Коффан

В ролях: Сандра Буллок☆Sandra Bullock (Scarlet Overkill, озвучка), Джон Хэмм☆Jon Hamm (Herb Overkill, озвучка), Майкл Китон☆Michael Keaton (Walter Nelson, озвучка), Эллисон Дженни☆Allison Janney (Madge Nelson, озвучка), Стив Куган☆Steve Coogan (Professor Flux / Tower Guard, озвучка), Дженнифер Сондерс☆Jennifer Saunders (The Queen, озвучка), Джеффри Раш☆Geoffrey Rush (рассказчик, озвучка), Стив Карелл☆Steve Carell (Young Gru, озвучка), Пьер Коффан☆Pierre Coffin (The Minions, озвучка), Кэти Миксон☆Katy Mixon (Tina, озвучка)


Описание: Миньоны живут на планете гораздо дольше нас. У них одна навязчивая идея — служить самой Гадкой личности из имеющихся в наличии. Динозавры, фараоны, Дракула, Наполеон — все они оказались недолговечны. И тогда миньоны рванули в Нью-Йорк. Их ждут деньги, власть, роковая суперзлодейка Скарлет Оверкилл и, конечно же, вкуснейшая «банана»! Во всяком случае, так им кажется.

Бюджет: $74 000 000
Сборы в США: $333 923 840
Сборы в мире: + $812 244 399 = $1 146 168 239
Сборы в России: $28 876 502
Рейтинг MPAA: Рекомендуется присутствие родителей



Качество: WEB-DLRip
Формат: AVI
Видео кодек: XviD
Аудио кодек: AC3
Видео: 720x384 (1.85:1), 23.976 fps, XviD, 1 759 Kbps
Аудио #1: AC3, 384 Kbps, 48.0 KHz, 6 ch

» Во время сцены со сказкой на ночь на фоне играет произведение Сергея Прокофьева «Петя и волк».

» Это первый фильм, в котором Сандра Буллок изображает злодейку.

» Режиссер Пьер Коффан озвучил всех 899 миньонов.

» Соло, которое играет Стюарт на новой электрогитаре в конце мультфильма — это композиция Эдварда Ван Халена «Eruption».

» Мировые сборы «Миньонов» превысили один миллиард долларов. Таким образом, Universal стала первой в истории студией, у которой сразу три фильма за один год покорили эту отметку. Другие два фильма — это «Форсаж 7» (2015) и «Мир Юрского периода» (2015).

» Корону Британской империи, которую носит Боб во время сцены «коронации», можно также увидеть и в фильме «Гадкий я» (2010), когда все миньоны предлагают сокровища, чтобы помочь Грю осуществить кражу Луны.
General
Complete name : Minions.2015.D.WEB-DLRip.avi
Format : AVI
Format/Info : Audio Video Interleave
File size : 1.37 GiB
Duration : 1h 30mn
Overall bit rate : 2 152 Kbps
Writing application : VirtualDubMod 1.5.10.3 | www.virtualdub-fr.org || (build 2550/release)
Writing library : VirtualDubMod build 2550/release

Video
ID : 0
Format : MPEG-4 Visual
Format profile : Advanced Simple@L5
Format settings, BVOP : 2
Format settings, QPel : No
Format settings, GMC : No warppoints
Format settings, Matrix : Default (MPEG)
Codec ID : XVID
Codec ID/Hint : XviD
Duration : 1h 30mn
Bit rate : 1 759 Kbps
Width : 720 pixels
Height : 384 pixels
Display aspect ratio : 1.85:1
Frame rate : 23.976 fps
Color space : YUV
Chroma subsampling : 4:2:0
Bit depth : 8 bits
Scan type : Progressive
Compression mode : Lossy
Bits/(Pixel*Frame) : 0.265
Stream size : 1.12 GiB (82%)
Writing library : XviD 1.2.1 (UTC 2008-12-04)

Audio
ID : 1
Format : AC-3
Format/Info : Audio Coding 3
Mode extension : CM (complete main)
Format settings, Endianness : Big
Codec ID : 2000
Duration : 1h 30mn
Bit rate mode : Constant
Bit rate : 384 Kbps
Channel(s) : 6 channels
Channel positions : Front: L C R, Side: L R, LFE
Sampling rate : 48.0 KHz
Bit depth : 16 bits
Compression mode : Lossy
Stream size : 250 MiB (18%)
Alignment : Split accross interleaves
Interleave, duration : 42 ms (1.00 video frame)
Interleave, preload duration : 500 ms
info [Профиль]  [ЛС] 

RevolutionEON

Пол: Пол:Муж

Стаж: 2 года 6 месяцев

Сообщений: 599

Рейтинг

post 08-Окт-2015 01:49 (спустя 1 час 39 минут) [-]0[+]

[Цитировать] 

Звук - нормально.
Картинка - нормально.
__
Спасибо за раздачу, давно хотел посмотреть.
info [Профиль]  [ЛС] 

post 05-Фев-2016 01:10 (спустя 3 месяца 27 дней) [-]0[+]

Топик был перенесен из форума Новинки 2014-2015 (Rips) в форум Зарубежные полнометражные мультфильмы

LyaKich
 
Показать сообщения:    
Ответить на тему

Текущее время: 11-Дек 16:00

Часовой пояс: GMT + 4



Вы не можете начинать темы
Вы не можете отвечать на сообщения
Вы не можете редактировать свои сообщения
Вы не можете удалять свои сообщения
Вы не можете голосовать в опросах
Вы не можете прикреплять файлы к сообщениям
Вы не можете скачивать файлы