Ошибка

Симпсоны (Сезон 27, cерий 13 из 22) (Мэтт Гроунинг / Matt Groening) [2015 г., Комедия, мультфильм, WEB-DLRip](VO-production)

Ответить на тему
 
Автор Сообщение

Хухр-Мухр

Пол: Пол:Муж

Стаж: 4 года 11 месяцев

Сообщений: 509

СССР
Рейтинг

post 05-Окт-2015 14:08 2[+]

[Цитировать] 

Симпсоны

Оригинальное название: The Simpsons
Год выпуска: 2015
Страна: США, 20th Century Fox
Жанр: Комедия, мультфильм
Серия: Серии 13 из 22
Сезон: 27
Продолжительность: 13 серий ~00:22:00
Перевод: Профессиональный (многоголосый, закадровый)(VO-production)

Режиссер:
  • Мэтт Гроунинг / Matt Groening
В ролях:
  • Дэн Кастелланета, Джули Кавнер, Нэнси Картрайт, Ярдли Смит, Гарри Ширер, Хэнк Азария, Памела Хейден, Тресс МакНилл, Карл Видерготт, Мэгги Росвэлл, Марсия Уоллес

Описание:
«Симпсоны» - это пародия на всех и вся, и на типичный американский уклад жизни в целом. Главные герои этого мультсериала - показательная в своей типичности семья Симпсонов - обжора и лежебока, недалекий Гомер, его жена-умница домохозяйка Мардж, их дети сорванец Барт, одаренная умная девочка Лиза и совсем еще младенец Мэгги. Каждая серия не только богата юмором, но и высмеивает одну из волнующих современного человека тем, так что сериал с успехом пережил более 25 сезонов и продолжает успешное шествие по экранам. Отрезки, шутки, сами герои Симпсонов стали неотъемлемой частью современной поп-культуры, а их имена стали именами нарицательными.
Сэмпл
Качество: WEB-DLRip
Формат: AVI
Данные видео: Xvid 720x400 (16:9) 23.976fps 1279kbps 0.185bit/pixel
Данные аудио: Dolby AC3 48000Hz stereo 192kbps
1. Мечта каждого человека (Every Man's Dream)
2. Типо детектив (Cue Detective)
3. Меньше пыхтите (Puffless)
4. Ужасы на Хэллоуин (Halloween of Horror)
5. Маленький домик ужасов на дереве 26 (Treehouse of Horror XXVI)
6. Друг с выгодой (Friend with Benefit)
7. Лиза с «С» (Lisa with an «S»)
8. Тропы славы (Paths of Glory)
9. Бартство (Barthood)
10. Женский код (The Girl Code)
11. Подросток-мутант и неприятности из-за заменителя молока (Teenage Mutant Milk-Caused Hurdles)
12. Много чего об Апу (Much Apu About Something)
13.Любовь — это N2-O2-Ar-CO2-Ne-He-CH4 (Love Is in the N2-O2-Ar-CO2-Ne-He-CH4)
General
Complete name : J:\Video\мультики\Симпсоны\Simpsons 27 season\The_Simpsons_2701_WEB-DLrip_VO-production.avi
Format : AVI
Format/Info : Audio Video Interleave
File size : 228 MiB
Duration : 21mn 29s
Overall bit rate : 1 482 Kbps
Writing application : Lavf56.1.100

Video
ID : 0
Format : MPEG-4 Visual
Format profile : Advanced Simple@L5
Format settings, BVOP : 3
Format settings, QPel : No
Format settings, GMC : 3 warppoints
Format settings, Matrix : Default (H.263)
Codec ID : XVID
Codec ID/Hint : XviD
Duration : 21mn 29s
Bit rate : 1 280 Kbps
Width : 720 pixels
Height : 400 pixels
Display aspect ratio : 16:9
Frame rate : 23.976 fps
Color space : YUV
Chroma subsampling : 4:2:0
Bit depth : 8 bits
Scan type : Progressive
Compression mode : Lossy
Bits/(Pixel*Frame) : 0.185
Stream size : 197 MiB (86%)
Writing library : XviD 64

Audio
ID : 1
Format : AC-3
Format/Info : Audio Coding 3
Mode extension : CM (complete main)
Format settings, Endianness : Big
Codec ID : 2000
Duration : 21mn 29s
Bit rate mode : Constant
Bit rate : 192 Kbps
Channel(s) : 2 channels
Channel positions : Front: L R
Sampling rate : 48.0 KHz
Bit depth : 16 bits
Compression mode : Lossy
Stream size : 29.5 MiB (13%)
Alignment : Aligned on interleaves
Interleave, duration : 32 ms (0.77 video frame)
Внимание! Раздача ведётся путём добавления новых серий. При каждом добавлении создаётся новый торрент. Чтобы начать докачку новой серии, пользователям необходимо сделать следующее:
(1) остановить скачивание,
(2) удалить старый торрент у себя из клиента (старые серии удалять не надо),
(3) скачать новый торрент и запустить его у себя в клиенте вместо старого, при этом указать клиенту путь в старую папку куда и должно происходить скачивание новых серий.

Ваш клиент при этом должен произвести хеширование (проверку) старой папки (если не производит сам - помогите ему сделать это), и будет докачивать только те серии которых у вас ещё нет. Старые серии при этом не удаляются, а продолжают раздаваться!

Eсли вы уже удалили старые серии, то предотвратить повторную закачку старых серий можно, отжав галочку в соответствующих местах при запуске нового торрента. По возможности, желательно не удалять старые серии как можно дольше чтобы релизёр не столько продолжал раздавать старые серии, а смог сконцентрироваться на новых.
info [Профиль]  [ЛС] 

Хухр-Мухр

Пол: Пол:Муж

Стаж: 4 года 11 месяцев

Сообщений: 509

СССР
Рейтинг

post 16-Окт-2015 08:20 (спустя 10 дней) [-]0[+]

[Цитировать] 

добавлена 2

_________________
есть одна народная мудрость, которая гласит: «Дай человеку огонь, и целый день он будет греться, но подожги его, и ему будет тепло до самой кончины»
info [Профиль]  [ЛС] 

Busujima

Пол: Пол:Муж

Стаж: 3 года 6 месяцев

Сообщений: 46

Россия
Рейтинг

post 16-Окт-2015 09:49 (спустя 1 час 28 минут) [-]0[+]

[Цитировать] 

Спасибо за новый сезон.

_________________
Когда я не какаю - я не ем, когда я не ем - я не какаю!
info [Профиль]  [ЛС] 

hak

Пол: Пол:Муж

Стаж: 6 лет 11 месяцев

Сообщений: 1090

Украина
Рейтинг

post 16-Окт-2015 21:35 (спустя 11 часов) [-]1[+]

[Цитировать] 

А нет получше качества?(

_________________
info [Профиль]  [ЛС] 

Хухр-Мухр

Пол: Пол:Муж

Стаж: 4 года 11 месяцев

Сообщений: 509

СССР
Рейтинг

post 22-Окт-2015 15:21 (спустя 5 дней) [-]0[+]

[Цитировать] 

Добавлена 3

hak писал(а):

А нет получше качества?(
у меня нет, а вообще есть

_________________
есть одна народная мудрость, которая гласит: «Дай человеку огонь, и целый день он будет греться, но подожги его, и ему будет тепло до самой кончины»
info [Профиль]  [ЛС] 

Хухр-Мухр

Пол: Пол:Муж

Стаж: 4 года 11 месяцев

Сообщений: 509

СССР
Рейтинг

post 06-Ноя-2015 13:20 (спустя 14 дней) [-]0[+]

[Цитировать] 

добавлена 4

_________________
есть одна народная мудрость, которая гласит: «Дай человеку огонь, и целый день он будет греться, но подожги его, и ему будет тепло до самой кончины»
info [Профиль]  [ЛС] 

Хухр-Мухр

Пол: Пол:Муж

Стаж: 4 года 11 месяцев

Сообщений: 509

СССР
Рейтинг

post 21-Ноя-2015 12:23 (спустя 14 дней) [-]0[+]

[Цитировать] 

добавлена 5

_________________
есть одна народная мудрость, которая гласит: «Дай человеку огонь, и целый день он будет греться, но подожги его, и ему будет тепло до самой кончины»
info [Профиль]  [ЛС] 
Показать сообщения:    
Ответить на тему

Текущее время: 08-Дек 20:14

Часовой пояс: GMT + 4



Вы не можете начинать темы
Вы не можете отвечать на сообщения
Вы не можете редактировать свои сообщения
Вы не можете удалять свои сообщения
Вы не можете голосовать в опросах
Вы не можете прикреплять файлы к сообщениям
Вы не можете скачивать файлы