Ошибка

Бездомный бог: Арагото/ Noragami Aragoto [TV-2] [1-13 из 13] [2015] [приключения, экшен, сверхъестественное, сёнен] [HDTVRip] [720p] [Субтитры (JAP)]

Ответить на тему
 
Автор Сообщение

anoningen

Стаж: 3 года 6 месяцев

Сообщений: 323

Самоа
Рейтинг

post 04-Окт-2015 12:16 2[+]

[Цитировать] 

Бездомный бог: Арагото
Noragami Aragoto | ノラガミ Aragoto


Год выпуска: 2015.
Тип: TV
Жанр: приключения, экшен, сверхъестественное, сёнен
Режиссер: Тамура Котаро
Автор оригинала: Адати Тока
Студия:
Продолжительность: 13 эп. по 25 мин
Русские субтитры: ASS, внешним файлом

Субтитры 1: LeDi-MaHo Team (1-13)
Переводчик/Переводчик песен: MantisFL
Редактор/Тайм-кодер/Оформитель: Holydarkness

Субтитры 2: YakuSub Studio (1-11)
Редактор: Harushechka
Оформитель: Helge
Переводчик/Переводчик песен: Nika_Elrik
Редактор: SapogaN

Описание: Второй сезон аниме про бездомного бога. Здесь основной акцент делается на богине войны Бисямон. У неё много синки, ведь она не способна отказаться от духов, подвергнутых нападению Акаяси. Бисямон стоит во главе большой группы синки, что частенько создаёт проблемы, поскольку она не может за всем уследить должным образом, особенно, когда кто-то из них болен или испытывает боль. Она яро ненавидит Ято, их связывает тёмное прошлое. Как ужасные события, произошедшие сотни лет тому назад, перекликаясь со зловещими событиями будней, повлияют на Ято и Юкинэ?

Автор рипа: Leopard-Raws
Качество: HDTVRip
Формат видео: MPEG-4
Видео: AVC, 8 бит, 1280x720; 23.976 кадра/сек; 2040 Кбит/сек, (16:9)
Аудио: AAC, 48 KHz, переменный 235~192 Кбит/сек, 2 канала
Общее
Полное имя : G:\Anime\Noragami Aragoto\[Leopard-Raws] Noragami Aragoto - 01 RAW (MBS 1280x720 x264 AAC).mp4
Формат : MPEG-4
Профиль формата : Base Media
Идентификатор кодека : isom
Размер файла : 392 Мбайт
Продолжительность : 24 м.
Режим общего битрейта : Переменный
Общий поток : 2236 Кбит/сек
Дата кодирования : UTC 2015-10-03 05:45:46
Дата пометки : UTC 2015-10-03 05:45:46

Видео
Идентификатор : 1
Формат : AVC
Формат/Информация : Advanced Video Codec
Профиль формата : High@L4.1
Параметр CABAC формата : Да
Параметр ReFrames формата : 4 кадра
Идентификатор кодека : avc1
Идентификатор кодека/Информация : Advanced Video Coding
Продолжительность : 24 м.
Битрейт : 2040 Кбит/сек
Максимальный битрейт : 12,3 Мбит/сек
Ширина : 1280 пикселей
Высота : 720 пикселей
Соотношение сторон : 16:9
Режим частоты кадров : Постоянный
Частота кадров : 23,976 кадра/сек
Цветовое пространство : YUV
Субдискретизация насыщенности : 4:2:0
Битовая глубина : 8 бит
Тип развёртки : Прогрессивная
Бит/(Пиксели*Кадры) : 0.092
Размер потока : 357 Мбайт (91%)
Заголовок : 264:fps=23.976@GPAC0.5.1-DEV-rev4929
Библиотека кодирования : x264 core 129 r2245+729M 1a52e03
Настройки программы : cabac=1 / ref=4 / deblock=1:1:-1 / analyse=0x3:0x113 / me=umh / subme=9 / psy=1 / fade_compensate=0.00 / psy_rd=1.00:0.00 / mixed_ref=1 / me_range=24 / chroma_me=1 / trellis=2 / 8x8dct=1 / cqm=0 / deadzone=21,11 / fast_pskip=1 / chroma_qp_offset=-2 / threads=8 / lookahead_threads=1 / sliced_threads=0 / nr=0 / decimate=1 / interlaced=0 / bluray_compat=0 / constrained_intra=0 / fgo=0 / bframes=9 / b_pyramid=2 / b_adapt=2 / b_bias=0 / direct=1 / weightb=1 / open_gop=0 / weightp=2 / keyint=240 / keyint_min=24 / scenecut=40 / intra_refresh=0 / rc=crf / mbtree=0 / crf=18.5 / qcomp=0.72 / qpmin=0 / qpmax=69 / qpstep=4 / ip_ratio=1.40 / pb_ratio=1.30 / aq=1:0.85
Дата кодирования : UTC 2015-10-03 05:45:46
Дата пометки : UTC 2015-10-03 05:45:48
Цветовой диапазон : Limited
Основные цвета : BT.709
Характеристики трансфера : BT.709
Коэффициенты матрицы : BT.709

Аудио
Идентификатор : 2
Формат : AAC
Формат/Информация : Advanced Audio Codec
Профиль формата : LC
Идентификатор кодека : 40
Продолжительность : 24 м.
Вид битрейта : Переменный
Битрейт : 192 Кбит/сек
Максимальный битрейт : 235 Кбит/сек
Каналы : 2 канала
Расположение каналов : Front: L R
Частота : 48,0 КГц
Метод сжатия : С потерями
Размер потока : 33,6 Мбайт (9%)
Язык : Japanese
Дата кодирования : UTC 2015-10-02 19:19:40
Дата пометки : UTC 2015-10-03 05:45:48
info [Профиль]  [ЛС] 

anoningen

Стаж: 3 года 6 месяцев

Сообщений: 323

Самоа
Рейтинг

post 17-Окт-2015 22:57 (спустя 13 дней) [-]0[+]

[Цитировать] 

Добавил третью серию.
info [Профиль]  [ЛС] 

Big23

Стаж: 6 лет 4 месяца

Сообщений: 991

Зимбабве
Рейтинг

post 18-Окт-2015 13:33 (спустя 14 часов) [-]0[+]

[Цитировать] 

Ещё пара серий и можно качать; пишут, что там всё как и в первом хорошо.

_________________
везде требуются космонавты
info [Профиль]  [ЛС] 

anoningen

Стаж: 3 года 6 месяцев

Сообщений: 323

Самоа
Рейтинг

post 26-Окт-2015 21:01 (спустя 8 дней) [-]0[+]

[Цитировать] 

Добавил 4 серию.
info [Профиль]  [ЛС] 

anoningen

Стаж: 3 года 6 месяцев

Сообщений: 323

Самоа
Рейтинг

post 01-Ноя-2015 02:23 (спустя 5 дней) [-]1[+]

[Цитировать] 

Добавил 5 серию.
info [Профиль]  [ЛС] 

Big23

Стаж: 6 лет 4 месяца

Сообщений: 991

Зимбабве
Рейтинг

post 01-Ноя-2015 12:00 (спустя 9 часов) [-]0[+]

[Цитировать] 

Уговорил :3

_________________
везде требуются космонавты
info [Профиль]  [ЛС] 

Big23

Стаж: 6 лет 4 месяца

Сообщений: 991

Зимбабве
Рейтинг

post 04-Ноя-2015 20:39 (спустя 3 дня) [-]2[+]

[Цитировать] 

В принципе, всё нормуль, как и в 1-м сезонце - нормальное действо. 5-я серия так вообще офигенчик kolob_125 !
.
Единственное, хочу отметить КОРЯВЫЕ субы от якусуб:
-Джунгли сават!
-К матери Хиёри её отец никак не мог обратиться "женщина", блин (+ там явно слышно "каса", мамка, то есь, или "дорогая").
(от леди-махо, вроде бы ничего, но по 1-му сезону к другим оборотам привык; вообще, пока что нету со всех сторон нравящихся субов, остаётся только подождать завершения и тогда нормальные сделают.. могет быть)

_________________
везде требуются космонавты
info [Профиль]  [ЛС] 

anoningen

Стаж: 3 года 6 месяцев

Сообщений: 323

Самоа
Рейтинг

post 08-Ноя-2015 15:21 (спустя 3 дня) [-]0[+]

[Цитировать] 

Добавил 6 серию.
info [Профиль]  [ЛС] 

Big23

Стаж: 6 лет 4 месяца

Сообщений: 991

Зимбабве
Рейтинг

post 13-Дек-2015 22:05 (спустя 1 месяц 5 дней) [-]0[+]

[Цитировать] 

Хмм, а про 3-й сезонец что-нибудь известно?
на WAT-арте ничего, но и второй через 8 релизов студии проявился...

_________________
везде требуются космонавты
info [Профиль]  [ЛС] 

ermkkkkk1

Стаж: 10 месяцев 30 дней

Сообщений: 1

Рейтинг

post 07-Янв-2016 04:45 (спустя 24 дня) [-]0[+]

[Цитировать] 

как включить субтитры пожалусо

добавлено спустя 1 минута 29 секунд:

не могу уже 5 недель жду
на русском

добавлено спустя 8 минут 36 секунд:

у меня нет такого интернета я и так трое суток скачевал три серии подскажите плиз
info [Профиль]  [ЛС] 

anoningen

Стаж: 3 года 6 месяцев

Сообщений: 323

Самоа
Рейтинг

post 10-Янв-2016 14:55 (спустя 3 дня) [-]0[+]

[Цитировать] 

ermkkkkk1

Цитата:

как включить субтитры пожалусо
Это зависит от того, с помощью какого проигрывателя воспроизводить. В PotPlayer, например, субтитры подхватываются автоматически. Отображение субтитров включается через "меню>субтитры>показывать субтитры" или Alt+H.
info [Профиль]  [ЛС] 
Показать сообщения:    
Ответить на тему

Текущее время: 04-Дек 03:58

Часовой пояс: GMT + 4



Вы не можете начинать темы
Вы не можете отвечать на сообщения
Вы не можете редактировать свои сообщения
Вы не можете удалять свои сообщения
Вы не можете голосовать в опросах
Вы не можете прикреплять файлы к сообщениям
Вы не можете скачивать файлы