Ошибка

Молодая гвардия (Сергей Герасимов) [1948 г., Драма, DVDRip]

Ответить на тему
 
Автор Сообщение

Kotleopold

Пол: Пол:Муж

Стаж: 4 года 11 месяцев

Сообщений: 194

СССР
Рейтинг

post 13-Сен-2015 23:27 6[+]

[Цитировать] 

Молодая гвардия

Год выпуска: 1948
Страна: СССР, Одесская к/с
Жанр: Драма
Продолжительность: 02:40:11

Режиссёр: Сергей Герасимов

В ролях: Вячеслав Тихонов, Георгий Юматов, Нонна Мордюкова, Борис Битюков, Людмила Шагалова, Глеб Романов, Караман Мгеладзе, Владимир Иванов, Инна Макарова, Сергей Гурзо, Г. Горин
Фильм снят по одноимённому роману Александра Фадеева.

Июль 1942 года. Великая Отечественная война. Части Советской Армии оставили шахтёрский город Краснодон. Город оккупировали фашистские войска...

Фильм основан на реальных исторических событиях и рассказывает о героической деятельности подпольной антифашистской комсомольской организации «Молодая гвардия» во время оккупации гитлеровскими войсками города Краснодона Украинской ССР в годы в Великой Отечественной войны.
Качество: DVDRip
Формат: AVI
Видео кодек: DivX
Аудио кодек: AC3
Видео (1 серия): 720х544, 2344 kbps, 25 fps, 24 bit
Видео (2 серия): 720х544, 2555 kbps, 25 fps, 24 bit
Аудио: 48 kHz; 2 ch; 108.12 kbps
Дополнительно:
По воспоминаниям Клары Лучко, сцена казни в финале фильма снималась в Краснодоне именно у того самого шурфа, где были расстреляны молодогвардейцы. На съёмки этой сцены пришло посмотреть множество местных жителей, в числе которых были и те, кто лично знал ребят, и их родственники.


General
Complete name : U:\Тапочки\Молодая гвардия (1948)\Молодая гвардия (1948) - 1 серия.avi
Format : AVI
Format/Info : Audio Video Interleave
File size : 1.37 GiB
Duration : 1h 23mn
Overall bit rate : 2 345 Kbps
Writing application : VirtualDubMod 1.5.4.1 (build 2178/release)
Writing library : VirtualDubMod build 2178/release
Video #0
ID : 0
Format : MPEG-4 Visual
Format settings, BVOP : Yes
Format settings, QPel : No
Format settings, GMC : No warppoints
Format settings, Matrix : Default (H.263)
Muxing mode : Packed bitstream
Codec ID : DX50
Codec ID/Hint : DivX 5
Duration : 1h 23mn
Bit rate : 1 890 Kbps
Width : 720 pixels
Height : 544 pixels
Display aspect ratio : 4:3
Frame rate : 25.000 fps
Resolution : 24 bits
Colorimetry : 4:2:0
Scan type : Progressive
Bits/(Pixel*Frame) : 0.193
Stream size : 1.10 GiB (81%)
Writing library : DivX 6.8.2 (UTC 2008-05-17)
Audio #1
ID : 1
Format : AC-3
Format/Info : Audio Coding 3
Codec ID : 2000
Duration : 1h 23mn
Bit rate mode : Constant
Bit rate : 448 Kbps
Channel(s) : 6 channels
Channel positions : Front: L C R, Surround: L R, LFE
Sampling rate : 48.0 KHz
Stream size : 268 MiB (19%)
Alignment : Split accross interleaves
Interleave, duration : 96 ms (2.40 video frames)
Interleave, preload duration : 96 ms
General
Complete name : U:\Тапочки\Молодая гвардия (1948)\Молодая гвардия (1948) - 2 серия.avi
Format : AVI
Format/Info : Audio Video Interleave
File size : 1.37 GiB
Duration : 1h 16mn
Overall bit rate : 2 555 Kbps
Writing application : VirtualDubMod 1.5.4.1 (build 2178/release)
Writing library : VirtualDubMod build 2178/release
Video #0
ID : 0
Format : MPEG-4 Visual
Format settings, BVOP : Yes
Format settings, QPel : No
Format settings, GMC : No warppoints
Format settings, Matrix : Default (H.263)
Muxing mode : Packed bitstream
Codec ID : DX50
Codec ID/Hint : DivX 5
Duration : 1h 16mn
Bit rate : 2 100 Kbps
Width : 720 pixels
Height : 544 pixels
Display aspect ratio : 4:3
Frame rate : 25.000 fps
Resolution : 24 bits
Colorimetry : 4:2:0
Scan type : Progressive
Bits/(Pixel*Frame) : 0.214
Stream size : 1.12 GiB (82%)
Writing library : DivX 6.8.2 (UTC 2008-05-17)
Audio #1
ID : 1
Format : AC-3
Format/Info : Audio Coding 3
Codec ID : 2000
Duration : 1h 16mn
Bit rate mode : Constant
Bit rate : 448 Kbps
Channel(s) : 6 channels
Channel positions : Front: L C R, Surround: L R, LFE
Sampling rate : 48.0 KHz
Stream size : 246 MiB (18%)
Alignment : Split accross interleaves
Interleave, duration : 96 ms (2.40 video frames)
Interleave, preload duration : 96 ms

info [Профиль]  [ЛС] 

L

Пол: Пол:Муж

Стаж: 6 лет 7 месяцев

Сообщений: 10754

Украина
Рейтинг

post 14-Сен-2015 07:19 (спустя 7 часов) [-]-1[+]

[Цитировать] 

Постер найдите без сторонних логотипов.

_________________
info [Профиль]  [ЛС] 

Kotleopold

Пол: Пол:Муж

Стаж: 4 года 11 месяцев

Сообщений: 194

СССР
Рейтинг

post 14-Сен-2015 08:51 (спустя 1 час 32 минуты) [-]0[+]

[Цитировать] 

L
Понял - вечером сделаю.

_________________
Чистые лапы, горячее сердце, холодная голова и пушистый хвост!!!
info [Профиль]  [ЛС] 

Brooklyn1161

Пол: Пол:Муж

Стаж: 1 год 2 месяца

Сообщений: 97

Россия
Рейтинг

post 14-Сен-2015 09:21 (спустя 29 минут) [-]0[+]

[Цитировать] 

Kotleopold писал(а):

L
Понял - вечером сделаю.
держи обложку
info [Профиль]  [ЛС] 

Kotleopold

Пол: Пол:Муж

Стаж: 4 года 11 месяцев

Сообщений: 194

СССР
Рейтинг

post 14-Сен-2015 19:42 (спустя 10 часов) [-]0[+]

[Цитировать] 

Brooklyn1161
Спасибо! kolob_141

_________________
Чистые лапы, горячее сердце, холодная голова и пушистый хвост!!!
info [Профиль]  [ЛС] 

L

Пол: Пол:Муж

Стаж: 6 лет 7 месяцев

Сообщений: 10754

Украина
Рейтинг

post 17-Сен-2015 09:25 (спустя 2 дня 13 часов) [-]-1[+]

[Цитировать] 

На постере все тот же логотип
Постер не должен превышать 600х600

_________________
info [Профиль]  [ЛС] 

Kotleopold

Пол: Пол:Муж

Стаж: 4 года 11 месяцев

Сообщений: 194

СССР
Рейтинг

post 18-Сен-2015 21:17 (спустя 1 день 11 часов) [-]0[+]

[Цитировать] 

Ффухх!.. kolob_119 Готово!

_________________
Чистые лапы, горячее сердце, холодная голова и пушистый хвост!!!
info [Профиль]  [ЛС] 

post 18-Сен-2015 22:14 (спустя 56 минут) [-]0[+]

Топик был перенесен из форума Анонсы в форум Российское кино (Rips)

L
 

prosareth2121

Пол: Пол:Муж

Стаж: 5 лет 5 месяцев

Сообщений: 75

Россия
Рейтинг

post 19-Сен-2015 14:27 (спустя 17 часов) [-]0[+]

[Цитировать] 

Книгу читал в свое время, зацепило.
info [Профиль]  [ЛС] 

post 19-Сен-2015 15:12 (спустя 44 минуты) [-]0[+]

Топик был перенесен из форума Российское кино (Rips) в форум Советское кино (Rips)

BZzz
 
Показать сообщения:    
Ответить на тему

Текущее время: 03-Дек 00:04

Часовой пояс: GMT + 4



Вы не можете начинать темы
Вы не можете отвечать на сообщения
Вы не можете редактировать свои сообщения
Вы не можете удалять свои сообщения
Вы не можете голосовать в опросах
Вы не можете прикреплять файлы к сообщениям
Вы не можете скачивать файлы