Ошибка

Бродяги / Road Rovers / Сезон: Первый / Серии: 01-02 из 13 (Херб Мур / Herb Moore) [1996, анимация, боевик, комедия, семейный, WEBRip] Rus Sub

Ответить на тему
 
Автор Сообщение

metalslayer

Пол: Пол:Муж

Стаж: 3 года 10 месяцев

Сообщений: 3

СССР
Рейтинг

post 22-Авг-2015 14:52 0[+]

[Цитировать] 

Бродяги / Road Rovers

Страна: США
Студия: Warner Bros. Television
Жанр: анимация, боевик, комедия, семейный
Продолжительность: 22:27
Год выпуска: 1996
Перевод: Субтитры от Metalslayer
Русские субтитры: есть

Режиссёр: Херб Мур / Herb Moore
Описание: Сериал о избранных учёным собак, которые в последствии были превращены в человекоподобных супер героев, чтобы вершить правосудие над злым генералом Парво.

Список серий:
01 Отправляемся в дорогу - Let's Hit The Road
02 Буря из Тихого Океана - Storm from the Pacific

Качество: WEBRip
Формат: MP4
Видео: AVC, 960x720, 23.976 fps, 1286 kbps
Аудио: AAC, 44.1 Khz, 2 канала, 192 kbps
Субтитры: Внешние субтитры от Metalslayer
 
General
Format : MPEG-4
Format profile : Base Media / Version 2
Codec ID : mp42
File size : 238 MiB
Duration : 22mn 27s
Overall bit rate mode : Variable
Overall bit rate : 1 481 Kbps
Encoded date : UTC 2015-03-27 00:23:32
Tagged date : UTC 2015-03-27 00:23:32
gsst : 0
gstd : 1347570
gssd : B4A7DD8E7HM1439321239102922
gshh : r7---sn-cg07luer.googlevideo.com
Video #1
ID : 1
Format : AVC
Format/Info : Advanced Video Codec
Format profile : High@L3.1
Format settings, CABAC : Yes
Format settings, ReFrames : 1 frame
Codec ID : avc1
Codec ID/Info : Advanced Video Coding
Duration : 22mn 27s
Bit rate : 1 286 Kbps
Maximum bit rate : 4 204 Kbps
Width : 960 pixels
Height : 720 pixels
Display aspect ratio : 4:3
Frame rate mode : Constant
Frame rate : 23.976 fps
Color space : YUV
Chroma subsampling : 4:2:0
Bit depth : 8 bits
Scan type : Progressive
Bits/(Pixel*Frame) : 0.078
Stream size : 207 MiB (87%)
Tagged date : UTC 2015-03-27 00:23:41
Audio #2
ID : 2
Format : AAC
Format/Info : Advanced Audio Codec
Format profile : LC
Codec ID : 40
Duration : 22mn 27s
Bit rate mode : Variable
Bit rate : 192 Kbps
Maximum bit rate : 201 Kbps
Channel(s) : 2 channels
Channel positions : Front: L R
Sampling rate : 44.1 KHz
Compression mode : Lossy
Stream size : 30.8 MiB (13%)
Title : IsoMedia File Produced by Google, 5-11-2011
Encoded date : UTC 2015-03-27 00:23:38
Tagged date : UTC 2015-03-27 00:23:41

Внимание! Раздача ведётся путём добавления новых серий; при каждом добавлении создаётся новый торрент. Чтобы начать докачку новой серии, пользователям необходимо сделать следующее:

1. остановить скачивание,
2. удалить старый торрент у себя из клиента (старые серии удалять не надо),
3. скачать новый торрент и запустить его у себя в клиенте вместо старого, при этом указать клиенту путь в старую папку куда и должно происходить скачивание новых серий.

Ваш клиент при этом должен произвести хеширование (проверку) старой папки (если не производит сам - помогите ему сделать это), и будет докачивать только те серии которых у вас ещё нет. Старые серии при этом не удаляются, а продолжают раздаваться!

Eсли вы уже удалили старые серии, то предотвратить повторную закачку старых серий можно, отжав галочку в соответствующих местах при запуске нового торрента. По возможности, желательно не удалять старые серии как можно дольше чтобы релизёр не столько продолжал раздавать старые серии, а смог сконцентрироваться на новых.
info [Профиль]  [ЛС] 

metalslayer

Пол: Пол:Муж

Стаж: 3 года 10 месяцев

Сообщений: 3

СССР
Рейтинг

post 22-Авг-2015 15:36 (спустя 43 минуты) [-]0[+]

[Цитировать] 

У кого медленно качает, пишите мне в личку.
info [Профиль]  [ЛС] 
Показать сообщения:    
Ответить на тему

Текущее время: 05-Дек 20:45

Часовой пояс: GMT + 4



Вы не можете начинать темы
Вы не можете отвечать на сообщения
Вы не можете редактировать свои сообщения
Вы не можете удалять свои сообщения
Вы не можете голосовать в опросах
Вы не можете прикреплять файлы к сообщениям
Вы не можете скачивать файлы