Ошибка

Упс… Ной уплыл! / Ooops! Noah is Gone... (Тоби Генкель, Шон МакКормак) [2015, мультфильм, комедия, приключения, HDRip]

Ответить на тему
 
Автор Сообщение

koss555

Пол: Пол:Муж

Стаж: 4 года 10 месяцев

Сообщений: 1549

Россия
Рейтинг

post 26-Июл-2015 17:42 1[+]

[Цитировать] 

Упс… Ной уплыл! / Ooops! Noah is Gone...

Год выпуска: 2015
Страна: Германия , Бельгия , Люксембург , Ирландия
Жанр: мультфильм, комедия, приключения
Продолжительность: 01:26:28
Перевод: Дублированное [iTunes]

Режиссер: Тоби Генкель, Шон МакКормак
Сценарий: Ричи Конрой, Тоби Генкель, Марк Ходкинсон
Продюсер: Яна Бол, Эмели Кристианс, Жан Гуссен
Композитор: Стефен МакКеон
Художник: Heiko Hentschel, Флориан Вестерманн
Монтаж: Reza Memari

В ролях: Дермот Магеннис / Dermot Magennis (Dave / Mr. Griffin / Prairie Dog, озвучка), Каллум Малони / Callum Maloney (Finny, озвучка), Тара Флинн / Tara Flynn (Hazel, озвучка), Ava Connolly (Leah, озвучка), Пол Тайлак / Paul Tylack (Obesey / Stayput / Chimpanzee, озвучка), Алан Стэнфорд / Alan Stanford (Lion, озвучка), Эйлин Митен / Aileen Mythen (Mrs. Griffin / Flamingo / Mrs. Guard / Margaret, озвучка), Патрик Фицсимонс / Patrick FitzSymons (Tanglefoot / Mr. Guard / Siberian Tiger, озвучка)


Описание: Грядет всемирный потоп, и старина Ной вот-вот отчалит. Самое время для зверей занять свои каюты. Но, увы, повезло не всем — кое-кто фейсконтроль не прошел. Теперь ему придется как следует постараться, чтобы перехитрить судьбу и заскочить на подножку уплывающего ковчега.
Премьера (мир): 9 апреля 2015
Премьера (РФ): 20 августа 2015, «UPI» 3D
Рейтинг MPAA: Нет возрастных ограничений



Качество: HDRip [Рип с BDRip 720p]
Формат: AVI
Видео кодек: XviD
Аудио кодеk: AC3
Видео: 1870 kb/s, 720x384
Аудио: Аудио #1: AC3, 384 kb/s (6 ch)
General
Complete name : K:\киношки\UpZZ...NO1Y.UpLL1LLL.2015.D.HDRip.1400MB.avi
Format : AVI
Format/Info : Audio Video Interleave
File size : 1.37 GiB
Duration : 1h 26mn
Overall bit rate : 2 262 Kbps
Writing application : VirtualDubMod 1.5.10.2 (build 2540/release)
Writing library : VirtualDubMod build 2540/release

Video
ID : 0
Format : MPEG-4 Visual
Format profile : Advanced Simple@L5
Format settings, BVOP : 2
Format settings, QPel : No
Format settings, GMC : No warppoints
Format settings, Matrix : Default (MPEG)
Codec ID : XVID
Codec ID/Hint : XviD
Duration : 1h 26mn
Bit rate : 1 870 Kbps
Width : 720 pixels
Height : 384 pixels
Display aspect ratio : 1.85:1
Frame rate : 24.000 fps
Color space : YUV
Chroma subsampling : 4:2:0
Bit depth : 8 bits
Scan type : Progressive
Compression mode : Lossy
Bits/(Pixel*Frame) : 0.282
Stream size : 1.13 GiB (83%)
Writing library : XviD 1.2.1 (UTC 2008-12-04)

Audio
ID : 1
Format : AC-3
Format/Info : Audio Coding 3
Mode extension : CM (complete main)
Format settings, Endianness : Big
Codec ID : 2000
Duration : 1h 26mn
Bit rate mode : Constant
Bit rate : 384 Kbps
Channel(s) : 6 channels
Channel positions : Front: L C R, Side: L R, LFE
Sampling rate : 48.0 KHz
Bit depth : 16 bits
Compression mode : Lossy
Stream size : 237 MiB (17%)
Alignment : Split accross interleaves
Interleave, duration : 42 ms (1.00 video frame)
Interleave, preload duration : 500 ms
info [Профиль]  [ЛС] 

post 26-Июл-2015 17:43 (спустя 31 секунда) [-]0[+]

Топик был перенесен из форума Оформление раздач (Кинематограф) в форум Новинки 2014-2015 (Rips)

koss555
 

AsusDelux

Пол: Пол:Муж

Стаж: 7 лет 3 месяца

Сообщений: 2433

Россия
Рейтинг

post 26-Июл-2015 19:31 (спустя 1 час 48 минут) [-]0[+]

[Цитировать] 

Фигасе.Ток вчера трейлер смотрел.
info [Профиль]  [ЛС] 

AlexandrEvil

Пол: Пол:Муж

Стаж: 5 лет 5 месяцев

Сообщений: 62

СССР
Рейтинг

post 26-Июл-2015 21:24 (спустя 1 час 53 минуты) [-]-10[+]

[Цитировать] 

Как качество на 1080р мониторах и как перевод, слушать можно или в трубочку уши заворачиваются ? ))))

_________________
(\(\
(=")
(")(")
info [Профиль]  [ЛС] 

MuPHoB

Пол: Пол:Муж

Стаж: 3 года 6 месяцев

Сообщений: 51

Россия
Рейтинг

post 27-Июл-2015 13:43 (спустя 16 часов) [-]5[+]

[Цитировать] 

AlexandrEvil,а сэмпл для чего?
info [Профиль]  [ЛС] 

Enix

Стаж: 6 лет 8 месяцев

Сообщений: 848

Рейтинг

post 29-Июл-2015 22:39 (спустя 2 дня 8 часов) [-]1[+]

[Цитировать] 

Лев на постере - какая-то смесь Шрама из "Король Лев" и льва из Мадагаскар 2.
info [Профиль]  [ЛС] 

acherst

Пол: Пол:Муж

Стаж: 2 года 10 месяцев

Сообщений: 16

Россия
Рейтинг

post 22-Авг-2015 10:31 (спустя 23 дня) [-]0[+]

[Цитировать] 

По сэплу судя, перевод нормальный вроде.

_________________
Случайностей не бывает, есть непознанные закономерности
info [Профиль]  [ЛС] 

koss555

Пол: Пол:Муж

Стаж: 4 года 10 месяцев

Сообщений: 1549

Россия
Рейтинг

post 24-Сен-2015 18:44 (спустя 1 месяц 2 дня) [-]6[+]

[Цитировать] 

 !  koss555:
Дублированное официальное

_________________
info [Профиль]  [ЛС] 

Kapter

Стаж: 7 лет

Сообщений: 39

Мартиника
Рейтинг

post 28-Сен-2015 20:20 (спустя 4 дня) [-]0[+]

[Цитировать] 

Спасибо за мульт
info [Профиль]  [ЛС] 

koss555

Пол: Пол:Муж

Стаж: 4 года 10 месяцев

Сообщений: 1549

Россия
Рейтинг

post 04-Окт-2015 12:28 (спустя 5 дней) [-]0[+]

[Цитировать] 

 !  koss555:
Обновлено iTunes

_________________
info [Профиль]  [ЛС] 

dotachin

Стаж: 6 лет 3 месяца

Сообщений: 297

Рейтинг

post 04-Окт-2015 23:57 (спустя 11 часов) [-]0[+]

[Цитировать] 

Цитата:

кое-кто фейсконтроль не прошел.
Как там в Робоцыпе было, "Господь ненавидит уродов"?
info [Профиль]  [ЛС] 

post 05-Фев-2016 01:10 (спустя 4 месяца) [-]0[+]

Топик был перенесен из форума Новинки 2014-2015 (Rips) в форум Зарубежные полнометражные мультфильмы

LyaKich
 
Показать сообщения:    
Ответить на тему

Текущее время: 03-Дек 08:43

Часовой пояс: GMT + 4



Вы не можете начинать темы
Вы не можете отвечать на сообщения
Вы не можете редактировать свои сообщения
Вы не можете удалять свои сообщения
Вы не можете голосовать в опросах
Вы не можете прикреплять файлы к сообщениям
Вы не можете скачивать файлы