Ошибка

Эверест: За Гранью возможного (Сезон 2) (8 серий из 8) / Everest: Beyond the Limit [2007, документальный, SATRip] Eng + Rus

Ответить на тему
 
Автор Сообщение

egor1908

Стаж: 6 лет 10 месяцев

Сообщений: 95

Рейтинг

post 22-Июл-2015 20:14 0[+]

[Цитировать] 

Эверест: За Гранью возможного (Сезон 2) (8 серий из 8) / Everest: Beyond the Limit

Сезон 1 | Сезон 3

Год выпуска: 2007
Страна: США / USA
Жанр: документальный, приключения
Продолжительность: 8x ~43 минуты

Перевод: Одноголосый закадровый, от Discovery Russia (отдельный рип).
Субтитры: Нет
Режиссер: Эд Веннер, Барни Ревилл, Эд Уордл.
В ролях (2 сезон): Расселл Брайс (Russell Brice), Фурба Таши (Phurba Tashi), Род Бабар (Rod Babar), Могенс Йенсен (Mogens Jensen), Тим Медвец (Tim Medvetz), Моника Пирис (Monica Piris), Дэвид Тайт (David Tait), Катсусуке Янагисава (Katsusuke Yanagisawa), Фрэд Зил (Fred Ziel).
Описание:
Эверест не жалеет тех, кто бросает ему вызов, и сурово награждает тех, кому удается его покорить. Станьте свидетелями того, как группа отважных альпинистов под началом новозеландца Расселла Брайса будет штурмовать склоны Эвереста, превозмогая нечеловеческие физические и эмоциональные нагрузки.

Благодаря новейшим методам съемки на больших высотах, вы увидите захватывающие и шокирующие кадры из дневника команды Брайса, которой удалось совершить невозможное

Wikipedia

Качество: SATRip
Формат: AVI
Видео кодек: XviD
Аудио кодек: MP3
ENG Видео: 624x352, XviD, 29.97fps, ~1000kbps
ENG Аудио: MP3, 44100Hz, 2.0 stereo, ~128kbps
RUS Видео: 640x432, XviD, 25fps, ~1449kbps
RUS Аудио: MP3, 48000Hz, 2.0 stereo, ~128kbps
General
Complete name : everest.beyond.the.limit.201.dsr.xvid.iht.avi
Format : AVI
Format/Info : Audio Video Interleave
File size : 350 MiB
Duration : 43mn 1s
Overall bit rate mode : Variable
Overall bit rate : 1 137 Kbps
Writing application : Nandub v1.0rc2
Writing library : Nandub build 1852/release

Video
ID : 0
Format : MPEG-4 Visual
Format profile : Advanced Simple@L5
Format settings, BVOP : 2
Format settings, QPel : No
Format settings, GMC : No warppoints
Format settings, Matrix : Default (H.263)
Muxing mode : Packed bitstream
Codec ID : XVID
Codec ID/Hint : XviD
Duration : 43mn 1s
Bit rate : 993 Kbps
Width : 624 pixels
Height : 352 pixels
Display aspect ratio : 16:9
Frame rate : 29.970 fps
Color space : YUV
Chroma subsampling : 4:2:0
Bit depth : 8 bits
Scan type : Progressive
Compression mode : Lossy
Bits/(Pixel*Frame) : 0.151
Stream size : 306 MiB (87%)
Writing library : XviD 1.1.2 (UTC 2006-11-01)

Audio
ID : 1
Format : MPEG Audio
Format version : Version 1
Format profile : Layer 3
Mode : Joint stereo
Mode extension : MS Stereo
Codec ID : 55
Codec ID/Hint : MP3
Duration : 43mn 1s
Bit rate mode : Variable
Bit rate : 128 Kbps
Channel(s) : 2 channels
Sampling rate : 48.0 KHz
Compression mode : Lossy
Stream size : 40.1 MiB (11%)
Alignment : Aligned on interleaves
Interleave, duration : 24 ms (0.72 video frame)
Interleave, preload duratio : 503 ms
Writing library : LAME3.90.
Encoding settings : -m j -V 4 -q 2 -lowpass 17.6 --abr 128
General
Complete name : Эверест_01_В Погоне за Мечтой.avi
Format : AVI
Format/Info : Audio Video Interleave
File size : 500 MiB
Duration : 44mn 22s
Overall bit rate : 1 576 Kbps
Writing application : VirtualDubMod 1.5.4.1 (build 2178/release)
Writing library : VirtualDubMod build 2178/release

Video
ID : 0
Format : MPEG-4 Visual
Format profile : Advanced Simple@L5
Format settings, BVOP : 1
Format settings, QPel : No
Format settings, GMC : No warppoints
Format settings, Matrix : Custom
Codec ID : XVID
Codec ID/Hint : XviD
Duration : 44mn 22s
Bit rate : 1 440 Kbps
Width : 640 pixels
Height : 432 pixels
Display aspect ratio : 3:2
Frame rate : 25.000 fps
Color space : YUV
Chroma subsampling : 4:2:0
Bit depth : 8 bits
Scan type : Progressive
Compression mode : Lossy
Bits/(Pixel*Frame) : 0.208
Stream size : 457 MiB (91%)
Writing library : XviD 1.2.1 (UTC 2008-12-04)

Audio
ID : 1
Format : MPEG Audio
Format version : Version 1
Format profile : Layer 3
Mode : Joint stereo
Mode extension : MS Stereo
Codec ID : 55
Codec ID/Hint : MP3
Duration : 44mn 22s
Bit rate mode : Constant
Bit rate : 128 Kbps
Channel(s) : 2 channels
Sampling rate : 48.0 KHz
Compression mode : Lossy
Stream size : 40.6 MiB (8%)
Alignment : Aligned on interleaves
Interleave, duration : 80 ms (2.00 video frames)
Interleave, preload duratio : 504 ms
Writing library : LAME3.98r
Encoding settings : -m j -V 4 -q 2 -lowpass 17 -b 128

info [Профиль]  [ЛС] 

post 25-Июл-2015 21:29 (спустя 3 дня) [-]0[+]

Топик был перенесен из форума Анонсы в форум Документальные фильмы и телепередачи

koss555
 
Показать сообщения:    
Ответить на тему

Текущее время: 09-Дек 00:14

Часовой пояс: GMT + 4



Вы не можете начинать темы
Вы не можете отвечать на сообщения
Вы не можете редактировать свои сообщения
Вы не можете удалять свои сообщения
Вы не можете голосовать в опросах
Вы не можете прикреплять файлы к сообщениям
Вы не можете скачивать файлы